<?xml version="1.0" standalone="no"?>
<!DOCTYPE svg PUBLIC "-//W3C//DTD SVG 1.1//EN" "http://www.w3.org/Graphics/SVG/1.1/DTD/svg11.dtd" >
<svg xmlns="http://www.w3.org/2000/svg" xmlns:xlink="http://www.w3.org/1999/xlink" version="1.1">
<metadata></metadata>
<defs>
<font id="kg_shake_it_off_chunkyregular" horiz-adv-x="1640" >
<font-face units-per-em="2048" ascent="1638" descent="-410" />
<missing-glyph horiz-adv-x="978" />
<glyph horiz-adv-x="0" />
<glyph unicode="&#xd;" horiz-adv-x="978" />
<glyph unicode=" "  horiz-adv-x="978" />
<glyph unicode="&#x09;" horiz-adv-x="978" />
<glyph unicode="&#xa0;" horiz-adv-x="978" />
<glyph unicode="!" horiz-adv-x="646" d="M112 206q0 42 14 82t42 72t71 52t103 24q58 2 101 -16t72 -48t43 -71t14 -83q0 -46 -16 -90t-46 -79t-75 -56t-101 -19q-54 0 -95 20t-70 53t-43 75t-14 84zM146 1852l364 4l-38 -1372l-254 -12z" />
<glyph unicode="&#x22;" horiz-adv-x="902" d="M114 1388q154 126 154 208t-146 228l248 116q160 -198 160 -356q0 -188 -220 -360zM534 1414q154 126 154 210q0 80 -146 228l248 116q160 -198 160 -356q0 -188 -220 -360z" />
<glyph unicode="#" horiz-adv-x="1310" d="M84 1190l198 32q-10 56 -21 118t-21 108l254 56l50 -238q8 2 36 6q-12 56 -23 121t-19 111l252 48l52 -238q64 10 139 23t129 23l48 -282l-258 -36q2 -4 2 -10t2 -14q58 10 127 22t119 22l48 -284l-238 -32q10 -50 23 -110t23 -98l-276 -60l-44 228h-9t-13 -2 q12 -56 24 -115t22 -105l-284 -62l-44 244q-54 -8 -115 -17t-105 -13l-40 256l212 34q-2 6 -2 14t-4 24q-52 -8 -110 -16t-98 -14zM600 998l6 -26q4 2 11 2t15 2q0 4 -1 10t-3 16q-6 -2 -12 -2t-16 -2z" />
<glyph unicode="$" horiz-adv-x="1394" d="M76 468l206 184q64 -102 136 -188t152 -138q-2 102 -3 220t-1 228q-10 4 -23 12t-21 12q-98 34 -168 86t-115 116t-67 137t-22 147q0 84 27 163t80 145t129 112t174 62v110l226 2l4 -118q114 -32 229 -120t217 -226l-280 -166q-26 74 -65 147t-95 107q4 -146 11 -282 t11 -288q84 -38 161 -77t139 -95q68 -64 98 -136t30 -146q0 -60 -19 -120t-53 -114t-81 -99t-103 -75q-70 -36 -144 -48q2 -36 2 -78t2 -64l-278 4l-2 166q-132 44 -256 149t-238 269zM398 1292q0 -12 2 -28t6 -34q10 -58 52 -103t106 -81v119t-1 114t-1 117v128 q-72 -24 -118 -83t-46 -149zM826 638q2 -98 5 -184t5 -192q10 2 15 6t15 10q40 26 62 72t22 98q0 36 -11 69t-39 61q-16 16 -33 30t-41 30z" />
<glyph unicode="%" horiz-adv-x="1238" d="M126 38l762 1848l246 -68l-730 -1912zM134 1502q0 42 14 82t42 72t71 52t101 24q60 2 103 -15t72 -48t43 -71t14 -84q0 -46 -16 -91t-46 -79t-75 -55t-101 -19q-54 0 -95 21t-70 53t-43 74t-14 84zM356 1510q0 -10 6 -10q10 0 10 14q0 4 -8 4t-8 -8zM664 306q0 42 13 82 t41 72t71 52t103 24q60 2 103 -15t72 -48t43 -71t14 -84q0 -46 -16 -91t-46 -79t-75 -55t-101 -19q-54 0 -95 21t-70 53t-43 74t-14 84zM886 314q0 -10 6 -10q10 0 10 14q0 4 -8 4t-8 -8z" />
<glyph unicode="&#x26;" horiz-adv-x="1292" d="M118 1396q2 102 38 193t107 159t179 106t254 32q108 -4 198 -52t154 -126t99 -181t33 -215q0 -102 -35 -202t-95 -192t-139 -172t-169 -142l-18 -14q18 -26 33 -46l30 -40t32 -41t41 -49q10 42 18 101t10 115l256 -48q-14 -220 -112 -368q44 -50 89 -95t93 -89l-216 -138 q-32 32 -66 65t-70 73q-88 -64 -189 -97t-211 -27q-70 6 -130 27t-105 60t-71 96t-26 131q0 46 12 104q22 84 92 162t158 146q-18 28 -37 56t-35 54h2q-114 184 -161 351t-43 303zM378 1382q0 -52 9 -114t30 -130t52 -138t75 -138l54 -86q4 0 14 10q136 90 211 219t93 275 q6 70 -11 133t-52 110t-84 75t-107 28q-70 0 -121 -20t-86 -53t-54 -78t-23 -93zM394 272q-12 -74 21 -106t85 -36q126 -2 216 66q-48 56 -98 120t-96 128q-56 -46 -88 -87t-40 -85z" />
<glyph unicode="'" horiz-adv-x="646" d="M114 1388q154 126 154 208t-146 228l248 116q160 -198 160 -356q0 -188 -220 -360z" />
<glyph unicode="(" horiz-adv-x="768" d="M68 856q0 156 32 311t98 299t165 271t235 227l164 -188q-108 -72 -189 -173t-135 -219t-81 -249t-27 -261q0 -128 25 -254t73 -240t120 -210t168 -164l-148 -248q-124 96 -217 221t-156 268t-95 298t-32 311z" />
<glyph unicode=")" horiz-adv-x="776" d="M34 1798l166 188q134 -100 234 -227t166 -271t98 -299t32 -311t-32 -311t-95 -298t-157 -268t-216 -219l-148 244q96 68 168 164t120 210t72 241t24 255q0 130 -27 261t-81 249t-135 219t-189 173z" />
<glyph unicode="*" horiz-adv-x="1310" d="M8 996l450 50q14 42 34 95t40 107t39 105t31 87l184 -334q48 6 113 13t132 15t127 15t98 11l-326 -298l236 -598l-548 320l-458 -332l210 520q-38 24 -89 55t-102 63t-96 60t-75 46z" />
<glyph unicode="+" horiz-adv-x="934" d="M104 904l220 6q-2 54 -4 115t-4 107l288 8l-6 -226q58 2 117 5t105 5l10 -286l-234 2q-2 -52 -3 -115t-1 -107l-256 -2l-6 228q-54 2 -116 3t-106 1z" />
<glyph unicode="," horiz-adv-x="526" d="M54 -116q154 126 154 210q0 78 -144 226l246 116q162 -202 162 -356q0 -182 -220 -360z" />
<glyph unicode="-" horiz-adv-x="934" d="M104 904l716 20l10 -288l-722 14z" />
<glyph unicode="." horiz-adv-x="480" d="M128 162q0 64 40 117t130 57t133 -47t43 -117q0 -34 -12 -67t-35 -59t-57 -41t-78 -15q-40 0 -70 15t-51 39t-32 55t-11 63z" />
<glyph unicode="/" horiz-adv-x="1202" d="M132 38l762 1848l246 -68l-730 -1912z" />
<glyph unicode="0" horiz-adv-x="1552" d="M76 844q0 178 44 353t128 315t208 231t284 101q158 8 282 -66t211 -205t133 -302t50 -357q2 -166 -35 -327t-115 -289t-197 -212t-281 -96h2q-14 -2 -28 -2h-30q-170 0 -294 72t-204 192t-119 274t-39 318zM344 868q0 -122 24 -236t74 -204t123 -144t173 -56q74 0 132 36 t103 96t77 136t52 155t30 154t10 133q0 126 -25 245t-72 212t-117 146t-160 47h2q-106 -10 -186 -76t-133 -166t-80 -225t-27 -253z" />
<glyph unicode="1" horiz-adv-x="454" d="M118 -26l2 1852l254 2l50 -1856z" />
<glyph unicode="2" horiz-adv-x="1516" d="M44 -18q244 312 409 530t272 370t165 253t86 177q20 58 20 112q0 82 -48 130t-124 48q-40 0 -87 -15t-95 -49q-48 -32 -90 -75t-78 -91t-65 -95t-53 -85l-32 -48l-256 72q32 74 78 152t104 151t124 134t138 103q88 50 167 73t149 23q94 0 172 -35t133 -95t85 -140 t30 -172q0 -100 -36 -198v2q-32 -86 -80 -177t-127 -206t-195 -263t-280 -346q212 12 435 26t425 26l4 -262z" />
<glyph unicode="3" horiz-adv-x="1480" d="M78 470l290 144q26 -88 71 -160t101 -126t120 -86t128 -40q68 -8 125 10t97 52t62 82t22 100q0 68 -41 133t-131 111q-68 34 -166 55t-230 21l4 326q10 0 28 -2t37 -3t37 -2t28 -1q102 0 180 26t131 68t80 94t27 104q0 70 -53 131t-167 83q-34 6 -72 6q-66 0 -130 -25 t-115 -71t-84 -112t-37 -148l-292 10q6 140 66 249t153 185t206 116t227 40q42 0 83 -5t81 -17q90 -24 164 -72t125 -109t79 -134t28 -149q0 -126 -79 -243t-253 -195q16 -6 31 -14t31 -16v2q150 -80 215 -191t65 -227q0 -94 -40 -182t-111 -157t-168 -111t-211 -42h-38 t-36 4h2q-94 12 -191 46t-185 94t-164 146t-130 202z" />
<glyph unicode="4" horiz-adv-x="1432" d="M106 1840l254 10l4 -776q156 8 296 17t300 17q-2 88 -5 183t-6 191t-6 190t-5 180l292 -4l-2 -726q48 4 70 6l26 -282l-96 -2v-848l-238 -2l-24 836q-100 -4 -208 -8t-217 -9t-216 -9t-205 -10z" />
<glyph unicode="5" horiz-adv-x="1514" d="M86 544l262 54q0 -220 77 -330t257 -100q100 6 184 64t144 145t93 190t33 199q0 56 -13 105t-41 85t-72 57t-104 21q-10 0 -23 -1t-29 -1h2q-62 -8 -134 -35t-145 -66t-145 -86t-134 -93t-112 -88t-78 -72l-12 1194l1256 30l28 -282l-1022 28q0 -62 -1 -114t-1 -104 t-1 -107t-1 -123q144 96 272 140t242 50h2q146 6 252 -33t173 -111t99 -170t32 -208q0 -146 -55 -298t-157 -276t-245 -203t-317 -79q-100 0 -201 26t-183 95t-133 189t-49 308z" />
<glyph unicode="6" horiz-adv-x="1528" d="M114 672q0 40 3 77t7 71v-2q30 192 107 376t192 327t260 230t309 87q58 0 127 -16t157 -50l-132 -236q-100 44 -152 44q-100 0 -196 -69t-177 -175t-141 -232t-88 -242q102 90 231 136t261 46q110 0 215 -40t181 -112q58 -66 91 -164t33 -190q0 -34 -2 -65t-12 -59v2 q-22 -92 -76 -172t-141 -139t-204 -93t-263 -34h-35t-37 2q-148 10 -247 77t-159 166t-86 218t-26 231zM462 436q0 -68 43 -123t139 -73q28 -6 55 -8t55 -2q74 0 135 19t109 50t80 72t48 85v-2q12 30 12 70q0 44 -18 87t-54 77t-90 56t-126 22q-32 0 -80 -6 q-72 -12 -129 -45t-97 -78t-61 -98t-21 -103z" />
<glyph unicode="7" horiz-adv-x="1320" d="M60 1766l1192 78l-844 -1938l-276 134l680 1522l-168 -21t-177 -21t-175 -21t-162 -21z" />
<glyph unicode="8" horiz-adv-x="1348" d="M80 1364q0 108 36 196q38 92 110 157t162 103t190 48t194 -10q102 -20 198 -68t169 -118t115 -161t36 -197v-2q-4 -90 -39 -181t-91 -176t-127 -160t-145 -133q98 -76 141 -165t43 -179q0 -82 -34 -155t-95 -126t-147 -82t-190 -19q-108 8 -185 39t-127 77t-73 104 t-23 120q0 106 65 211t179 177q-86 70 -153 156t-114 178t-71 186t-24 180zM357 1293q19 -97 67 -191t117 -177t135 -141q64 42 124 99t107 124t76 139t33 142q2 72 -22 129t-67 98t-99 68t-118 39q-46 10 -97 7t-98 -20t-86 -50t-59 -83q-32 -86 -13 -183zM454 274 q0 -34 20 -55t49 -33t63 -16t62 -4q100 0 140 42t33 98t-54 113t-123 87q-40 -16 -74 -43t-60 -58t-41 -65t-15 -66z" />
<glyph unicode="9" horiz-adv-x="1396" d="M92 1192q0 116 35 229t102 202t168 143t233 54q112 0 196 -45t138 -99q-2 42 -4 82t-4 74h270l46 -1858l-290 -10l-4 764q-64 -76 -147 -134t-177 -68q-14 -2 -28 -3t-30 -1q-92 0 -175 35t-150 105t-112 172t-59 238v-2q-4 30 -6 61t-2 61zM334 1136q0 -84 25 -152 t65 -115t94 -70t114 -15q68 16 126 61t99 105t64 127t23 127q-4 56 -32 124t-73 125t-102 90t-121 21q-36 -6 -85 -27t-92 -69t-74 -129t-31 -203z" />
<glyph unicode=":" horiz-adv-x="582" d="M154 972q0 32 10 62t31 54t53 39t76 17t77 -11t55 -36t32 -54t10 -63q0 -34 -12 -67t-35 -59t-56 -41t-77 -15q-40 0 -71 16t-52 40t-31 55t-10 63zM158 578q0 64 40 117t130 57t133 -47t43 -117q0 -34 -12 -67t-35 -59t-56 -41t-77 -15q-40 0 -71 15t-52 39t-32 55 t-11 63z" />
<glyph unicode=";" horiz-adv-x="638" d="M86 666q0 64 40 117t130 57t133 -47t43 -117q0 -34 -12 -67t-35 -59t-57 -41t-78 -15q-40 0 -70 15t-51 39t-32 55t-11 63zM144 -110q154 126 154 208q0 80 -144 228l246 116q162 -202 162 -356q0 -186 -220 -360z" />
<glyph unicode="&#x3c;" horiz-adv-x="920" d="M4 752l678 412l168 -230l-286 -142q76 -24 163 -50t151 -48l-118 -256z" />
<glyph unicode="=" horiz-adv-x="894" d="M104 742l716 18l10 -288l-722 14zM104 1104l716 20l10 -288l-722 14z" />
<glyph unicode="&#x3e;" horiz-adv-x="902" d="M50 906l118 256l754 -314l-678 -412l-166 230l286 144q-78 24 -164 49t-150 47z" />
<glyph unicode="?" horiz-adv-x="1456" d="M90 1272q0 128 51 231t134 175t189 111t214 39q22 0 49 -3t57 -7q90 -18 174 -58t153 -97t118 -129t71 -152q22 -82 22 -152q0 -118 -47 -219t-124 -176t-174 -118t-199 -43h-40t-40 4l20 -274l-252 -18l-18 720q88 -104 161 -151t125 -47q56 0 111 22t98 64t70 102 t27 134q0 18 -2 38t-6 36q-10 52 -39 102t-70 91t-93 70t-108 41l2 -2q-34 6 -56 6q-64 0 -121 -26t-101 -71t-70 -107t-26 -134q0 -32 20 -138l-272 24q-4 34 -6 62t-2 50zM446 112q0 64 40 117t130 57t133 -47t43 -117q0 -34 -12 -67t-35 -59t-57 -41t-78 -15 q-40 0 -70 15t-51 39t-32 55t-11 63z" />
<glyph unicode="@" horiz-adv-x="2090" d="M90 794q0 114 18 220q30 160 105 310t193 265t281 184t369 69h31t31 -2h-2q180 -10 325 -72t248 -161t159 -226t60 -267v-54q0 -178 -29 -311t-80 -226t-118 -147t-143 -70q-30 -8 -70 -8q-60 0 -118 27t-88 103q-64 -90 -164 -155t-244 -73q-112 -4 -196 39t-139 116 t-83 170t-28 201v45t2 41v-2q12 106 54 206t112 175t170 118t230 37q66 -4 132 -28t120 -64q-2 18 -3 31t-3 25l288 -2q-16 -204 -24 -361t-8 -237q0 -50 2 -76t7 -37t13 -12t18 -1q26 -2 48 41t39 109t27 144t10 146q0 18 -1 35t-3 35q-14 86 -53 168t-106 148t-163 112 t-224 60q-18 4 -34 4h-32q-116 0 -217 -50t-183 -133t-143 -189t-95 -220q-16 -64 -26 -134t-10 -134q0 -124 34 -239t105 -206t182 -151t267 -72q54 -6 121 4t136 36t134 66t119 94l210 -252q-94 -66 -184 -110t-179 -70t-175 -36t-172 -8h-2q-214 4 -375 93t-268 231 t-161 322t-54 366zM664 708q0 -54 11 -103t35 -87t61 -59t87 -21h2q50 0 95 29t81 75t60 103t32 111q6 34 8 63t2 55q0 120 -44 180t-120 64q-64 2 -116 -25t-90 -74t-63 -108t-35 -125v2q-4 -22 -5 -43t-1 -37z" />
<glyph unicode="A" horiz-adv-x="1584" d="M48 -52l742 2054l730 -2066l-308 -18l-132 382q-156 -20 -301 -38t-305 -36q-26 -76 -57 -168t-53 -162zM574 524q102 10 201 18t215 18q-30 84 -53 154t-46 138t-48 142t-57 166z" />
<glyph unicode="B" horiz-adv-x="1242" d="M104 1868l240 4v-20q64 14 122 20t114 8h14q107 0 195 -28q93 -30 158 -83t100 -125t35 -150q0 -98 -59 -196t-185 -178q-22 -14 -41 -25t-47 -23q78 -22 138 -52t105 -66t76 -74t51 -76q48 -88 56 -186q0 -124 -49 -230t-145 -188t-240 -139t-334 -83v-34l-290 12z M350 1592q2 -54 4 -102t4 -94t4 -95t4 -107q86 24 171 60t155 82q72 40 104 81t32 77q0 58 -70 99t-180 41q-60 0 -119 -13t-109 -29zM378 876q2 -88 5 -168l6 -160t6 -161t7 -173q126 22 222 62t159 92t94 111q26 49 26 98q0 9 -1 19q-8 76 -53 127t-116 82t-163 48 t-192 23z" />
<glyph unicode="C" horiz-adv-x="1628" d="M58 990q0 148 42 294t124 271t204 220t284 141q58 14 122 14q98 0 192 -41t173 -111t139 -166t90 -204l-306 -78q-40 96 -79 157t-77 94t-75 45t-71 12q-16 0 -39 -2t-41 -4q-52 -8 -103 -39t-97 -79t-83 -110t-59 -130q-24 -74 -37 -153t-13 -159q0 -132 35 -258 t105 -224t175 -155q92 -50 213 -50q17 0 34 1q56 10 107 50t93 99t70 131t38 144l314 -144q-26 -106 -83 -202t-137 -171t-181 -124t-215 -59h-2q-16 -2 -33 -3t-35 -1q-186 0 -332 86t-247 226t-155 318t-54 364z" />
<glyph unicode="D" horiz-adv-x="1342" d="M90 1876q64 16 120 24t102 8q184 0 348 -81t291 -217t209 -315t102 -373v-2q2 -16 3 -32t1 -36q0 -188 -92 -344t-240 -269t-332 -176t-370 -63q-14 0 -34 1t-76 7zM376 1664l14 -1402q40 2 100 20t124 53t128 86t114 122t81 161q29 85 29 189v13q-8 132 -52 267 t-120 244t-181 178t-235 69h-2z" />
<glyph unicode="E" horiz-adv-x="1276" d="M100 1840l1118 54l-48 -286l-792 -4q2 -148 3 -276t3 -280q54 6 113 12t118 13t116 14t105 11l-48 -298l-402 -14q2 -76 5 -145t5 -137t5 -138t5 -148q96 4 200 9t209 9t207 9t196 9l-8 -284l-1090 2z" />
<glyph unicode="F" horiz-adv-x="1250" d="M100 1862l1118 30l-48 -284l-792 -4q2 -148 3 -277t3 -283q54 2 113 6l118 8t116 7t105 7l-48 -296l-402 10q4 -188 10 -389t10 -385l-286 -50z" />
<glyph unicode="G" horiz-adv-x="1718" d="M108 930q0 66 6 132q16 166 76 322t157 279t230 202t293 93q16 2 33 3t37 1q110 0 206 -35t175 -97t138 -148t97 -186l-288 -112q-24 50 -60 108t-84 104t-110 74q-51 23 -110 23q-13 0 -26 -1q-124 -18 -213 -87t-146 -169t-85 -222t-28 -246q0 -138 28 -264t80 -222 q32 -62 79 -110t100 -80t109 -48q50 -14 98 -14h12q56 4 112 31t104 83t86 141t56 205q-66 -2 -138 -4l-144 -4t-142 -4t-132 -4l-6 308l880 -24q-10 -238 -60 -426t-136 -319t-202 -200t-256 -69h-9q-197 0 -348 82q-155 84 -259 222t-157 316t-53 366z" />
<glyph unicode="H" horiz-adv-x="1582" d="M96 1884l262 2l32 -824l388 100t394 102q-2 74 -5 156t-6 165t-7 163t-6 152l306 -2l46 -1910l-278 -2l-36 970q-202 -50 -390 -97t-394 -97q2 -94 6 -195t9 -203t8 -202t7 -192l-290 4z" />
<glyph unicode="I" horiz-adv-x="1556" d="M76 200l520 30v345t-1 337t-1 337v347q-60 -2 -125 -4t-130 -3t-127 -3t-116 -4l10 296l1312 18l50 -254l-596 -32q6 -178 12 -346t13 -335t13 -336t12 -347q120 6 256 15t250 15l-12 -312l-1306 -18z" />
<glyph unicode="J" horiz-adv-x="1636" d="M64 414l284 116q76 -192 140 -280t138 -88q16 0 33 4t39 10q38 10 68 73t51 167t32 243t11 303q0 310 -48 676q-116 -4 -247 -7t-239 -7v308l1222 -30l-24 -244l-398 -14q8 -114 14 -250t6 -276q0 -136 -7 -274t-24 -266t-47 -241t-75 -202t-107 -147t-144 -76h2 q-54 -14 -112 -14q-76 0 -151 27t-147 89t-140 160t-130 240z" />
<glyph unicode="K" horiz-adv-x="1448" d="M72 1876l334 98l-4 -794q166 190 337 386t333 380l222 -208l-790 -818q108 -100 225 -207t235 -215t234 -215t222 -205l-304 -138l-684 682q6 -160 13 -327t11 -319l-272 -50z" />
<glyph unicode="L" horiz-adv-x="1304" d="M94 1944l322 -10l-8 -1686q200 20 414 41t410 39l-26 -322l-1058 -48z" />
<glyph unicode="M" horiz-adv-x="1716" d="M114 2020l742 -956q78 108 168 232t182 250t180 247t162 223l50 -2126l-270 32l-52 1268q-98 -156 -203 -320t-195 -308l-490 654q8 -314 16 -644t14 -634l-278 36z" />
<glyph unicode="N" horiz-adv-x="1438" d="M104 2026l930 -1344q8 302 15 613t13 603h282l-6 -2124l-958 1344q18 -296 37 -602t37 -592l-334 -8z" />
<glyph unicode="O" d="M120 922q0 114 20 233t60 231t99 210t137 172t176 117t214 43q92 0 175 -37t156 -103t133 -154t106 -192t77 -217t45 -227q4 -42 7 -84t3 -86q0 -144 -36 -281t-107 -249t-178 -190t-251 -108q-28 -6 -62 -8t-64 -2q-180 0 -313 79t-221 210t-132 298t-44 345zM382 964 q0 -134 32 -264t95 -231t155 -159q81 -51 183 -51q14 0 29 1q94 6 164 58t117 136t70 193t23 227v37t-2 37q-6 126 -38 247t-86 214t-128 150t-166 57q-116 0 -201 -63t-140 -159t-81 -211t-26 -219z" />
<glyph unicode="P" horiz-adv-x="1396" d="M90 1894l250 2v-46q24 4 42 8q64 14 133 21t133 7q94 0 185 -17t172 -57t149 -107t114 -165q66 -138 66 -288q0 -112 -36 -216t-108 -185t-180 -129q-104 -46 -241 -46h-11q-108 2 -206 32t-180 100q4 -212 8 -433t8 -425l-290 -36zM346 1588q4 -92 7 -178t5 -178 q12 -60 52 -113t97 -91t124 -60q61 -20 124 -20h11q80 2 137 27t94 64t54 89t17 104q0 48 -13 96t-35 92q-30 60 -71 99t-89 63t-103 34t-113 10q-56 0 -111 -6t-107 -16q-14 -4 -22 -5t-15 -2t-16 -3z" />
<glyph unicode="Q" d="M112 968q0 96 17 204t53 214t91 203t131 170t172 117t216 44q154 0 279 -77t217 -206t150 -295t80 -344q4 -42 7 -84t3 -86q0 -164 -42 -317t-126 -269l164 -164l-270 -186l-130 160q-38 -18 -80 -30t-90 -22q-28 -4 -58 -7t-60 -3q-182 0 -318 84t-226 222t-135 314 t-45 358zM382 964q0 -134 34 -262t97 -228t155 -159q86 -55 193 -55h15q16 2 37 5t37 9q-28 34 -59 75t-51 67l190 158l124 -126q50 86 73 196t23 234v34t-2 36q-6 126 -38 247t-86 214t-128 150t-166 57q-116 0 -201 -63t-140 -159t-81 -211t-26 -219z" />
<glyph unicode="R" horiz-adv-x="1386" d="M76 -82l16 1976l242 2v-22q96 24 194 38t188 14q116 0 215 -25t170 -82t109 -149q33 -79 33 -190q0 -17 -1 -36q-6 -148 -66 -267t-155 -211t-217 -157t-252 -107q96 -66 198 -135t204 -140t202 -139t194 -130l-224 -254l-754 598q4 -138 6 -281t4 -273zM338 1612 q4 -90 7 -172t6 -162t6 -162t7 -174q100 24 204 63t190 99t146 143t74 197q2 16 2 31q0 42 -17 74q-23 43 -66 70t-102 38t-125 11q-84 0 -171 -15t-161 -41z" />
<glyph unicode="S" horiz-adv-x="1394" d="M84 454l216 206q48 -80 111 -162t132 -149t140 -109t137 -42q28 0 53 7t51 25q44 30 69 85t25 117q0 44 -13 84t-45 74q-52 56 -134 104t-162 92q-110 58 -203 116t-160 129t-104 159t-37 206q0 102 38 200t107 176t167 128t218 58q80 0 162 -28t163 -80t157 -128 t142 -172l-290 -188q-20 56 -51 119t-73 113t-95 80q-44 25 -97 25q-11 0 -22 -1q-54 -6 -101 -27t-83 -59t-57 -90t-21 -120q0 -82 36 -142t95 -106t132 -83t149 -71q102 -46 195 -96t163 -120q72 -70 103 -152t31 -166q0 -70 -20 -137t-55 -127t-84 -111t-109 -85 q-114 -64 -244 -64q-94 0 -190 35t-191 101t-184 161t-167 215z" />
<glyph unicode="T" horiz-adv-x="1404" d="M66 1680l4 246l1242 20l42 -282l-562 6q12 -414 23 -845t21 -841l-308 -38v1732q-112 0 -233 1t-229 1z" />
<glyph unicode="U" horiz-adv-x="1466" d="M109 1560q5 196 7 350l308 -40q-12 -72 -19 -180t-8 -236v-37q0 -111 5 -231q6 -140 21 -274t40 -254t62 -210t86 -140q45 -46 104 -46h9q98 8 164 103t107 251t58 357t17 421q0 54 -2 119t-5 131t-6 131t-7 121l310 10v-130q0 -418 -35 -757t-113 -575t-203 -356 q-107 -103 -255 -103q-25 0 -50 3q-170 26 -280 135t-176 271t-96 361t-39 404q-6 132 -6 260q0 71 2 141z" />
<glyph unicode="V" horiz-adv-x="1556" d="M48 1864l308 16l426 -1240q102 310 210 634t210 628l316 -52l-742 -2052z" />
<glyph unicode="W" horiz-adv-x="2264" d="M62 1906l302 16l364 -1284q42 86 89 179t93 185l90 180t82 166l372 -714q92 330 181 647t181 641l332 -16l-664 -2098l-406 920q-44 -108 -94 -230t-101 -246t-99 -241t-86 -213z" />
<glyph unicode="X" horiz-adv-x="1684" d="M38 1764l300 136q34 -36 107 -144t181 -270l190 -284q52 76 101 151t93 139q102 150 174 259t110 149l300 -136l-612 -810q78 -114 161 -235t162 -235t152 -217t133 -183l-194 -120l-580 766q-68 -90 -142 -188t-150 -198t-149 -197t-139 -183l-194 120q60 82 134 184 t153 216t161 233t160 237q-72 96 -150 199t-157 208t-157 207t-148 196z" />
<glyph unicode="Y" horiz-adv-x="1376" d="M90 640q0 16 1 38t5 82l328 -34q-8 -52 -11 -86t-3 -52q0 -80 23 -155t65 -131t102 -86q45 -22 99 -22q18 0 37 2q80 10 132 73t82 162t41 223t11 254q0 98 -5 195t-13 187q-28 -64 -64 -122t-84 -102t-108 -69t-134 -25q-28 0 -45 2t-35 6q-92 18 -157 68t-108 122 t-68 160t-38 183t-17 190t-6 183l284 4v-98q0 -22 -1 -46t-1 -52q0 -70 5 -149t25 -147t57 -115t101 -49h5q39 0 72 32q35 34 62 89t47 128t33 148t19 149t6 132l362 10q4 -58 9 -115t13 -113q10 -76 22 -172t22 -205t17 -226t7 -237q0 -188 -23 -366t-84 -316t-165 -221 t-266 -83q-140 0 -260 58t-209 160t-139 244t-50 310z" />
<glyph unicode="Z" horiz-adv-x="1516" d="M58 -4l896 1622q-202 -4 -419 -6t-411 -6v292l1324 -22l-828 -1582q200 4 419 4t413 4l-54 -290z" />
<glyph unicode="[" horiz-adv-x="754" d="M128 1996l528 14l46 -244l-294 -34q2 -216 6 -423t7 -412t7 -413t8 -424q66 4 140 10t130 8l-10 -304l-516 -6z" />
<glyph unicode="\" horiz-adv-x="1120" d="M56 1818l246 68l762 -1848l-278 -132z" />
<glyph unicode="]" horiz-adv-x="806" d="M128 1698l10 304l516 6l52 -2228l-528 -14l-46 242l294 36q-4 216 -7 423t-6 412t-7 413t-8 424q-66 -4 -140 -10t-130 -8z" />
<glyph unicode="^" horiz-adv-x="852" d="M110 740l392 466l300 -524l-254 -118l-98 186q-28 -44 -59 -91t-51 -79z" />
<glyph unicode="_" horiz-adv-x="1102" d="M72 178l934 28l8 -286l-938 2z" />
<glyph unicode="`" horiz-adv-x="564" d="M82 2342l176 176l316 -344l-218 -184z" />
<glyph unicode="a" horiz-adv-x="1542" d="M124 818q0 18 1 36t1 36q4 90 21 200t52 222t88 216t128 182t172 121q82 36 183 36q19 0 38 -1q90 -8 170 -48t144 -104q-4 42 -5 82t-3 72l302 -26l-26 -1792l-266 -10v362q-36 -74 -81 -143t-102 -124t-126 -90t-151 -41q-23 -2 -46 -2q-124 0 -211 57 q-103 67 -166 184t-90 268t-27 307zM382 818q0 -148 21 -253t57 -172t85 -97t103 -30q64 0 125 65t110 164t83 215t46 222q12 116 12 208q0 118 -18 203t-50 140t-74 83t-92 34q-82 0 -152 -60t-123 -160t-87 -231t-44 -271q0 -12 -1 -31t-1 -29z" />
<glyph unicode="b" horiz-adv-x="1270" d="M72 2l76 1804l266 22l-22 -788q70 60 162 98q83 34 170 34h18q102 -4 182 -57t137 -131t88 -172t33 -180v-23q0 -123 -40 -228q-44 -115 -118 -199t-167 -132t-187 -50h-14q-114 0 -183 31q-73 33 -121 81q0 -42 1 -82t1 -72zM408 594q0 -76 22 -137t57 -105t78 -69 t83 -27h6q32 0 72 19q44 21 85 62t69 101t32 136v12q0 47 -13 100q-15 60 -45 111t-76 85t-108 34q-52 0 -99 -34t-83 -84t-58 -106t-22 -98z" />
<glyph unicode="c" horiz-adv-x="1642" d="M102 854q0 172 47 342t141 310t238 233t336 113q14 2 30 2q63 0 139 -27q95 -33 177 -105t133 -184q40 -88 40 -199q0 -31 -3 -63l-254 20q-8 102 -47 160t-85 85t-89 32t-57 5q-50 0 -102 -24t-101 -63t-92 -93t-75 -114q-54 -100 -86 -222t-32 -248q0 -96 26 -185 t79 -159t131 -116t180 -54q96 0 164 39t116 102t78 144t50 165l270 -128q-20 -122 -76 -233t-144 -197t-205 -137t-255 -53h-9q-160 0 -283 69q-126 71 -210 190t-127 273t-43 320z" />
<glyph unicode="d" horiz-adv-x="1424" d="M84 588v48t2 48q16 140 77 244t146 171t187 98q85 26 167 26q16 0 31 -1q90 -6 181 -51t157 -109v820l266 20l16 -1912l-272 -50v206q-72 -58 -174 -102t-226 -44q-22 0 -36 1t-30 3q-88 12 -176 46t-158 102t-114 175t-44 261zM336 606q2 -118 38 -186t83 -103t93 -46 t68 -13q8 -1 17 -1q56 0 114 24q67 27 122 74t91 112t40 139v8q0 41 -19 96q-21 60 -60 115t-96 97t-127 52q-16 2 -33 2q-49 0 -98 -18q-65 -24 -118 -74t-85 -121q-30 -67 -30 -147v-10z" />
<glyph unicode="e" horiz-adv-x="1554" d="M74 1004q4 198 73 355t177 267t242 168t266 58q16 0 31 -1t29 -3q104 -12 197 -63t164 -147t114 -237t47 -331l-1046 28q-6 -50 -8 -94t-2 -86q0 -138 26 -252t73 -197t114 -133t151 -58q42 0 102 20t118 71t103 139t61 224l332 -40q-38 -198 -107 -333t-162 -216 t-209 -117t-250 -36h-10q-112 0 -201 43q-93 45 -164 122t-121 178t-82 214t-46 231q-12 103 -12 199v27zM440 1378q68 -2 135 -2h133h116h77h64t64 -1t75 -3q-14 32 -39 68t-58 65t-72 49t-81 24h-16q-51 0 -103 -11q-61 -13 -117 -39t-103 -64t-75 -86z" />
<glyph unicode="f" horiz-adv-x="1498" d="M76 856l34 290l246 4q12 146 45 255t86 185t123 122t158 68q62 14 124 14q92 0 172 -36t145 -102t112 -159t77 -209l-330 -52q-8 52 -25 104t-42 94t-58 68t-71 26q-28 0 -46 -8q-50 -16 -88 -55t-63 -90t-39 -110t-18 -113q104 2 221 2t213 2l-10 -256l-410 -20 q16 -222 33 -461t31 -457l-302 -66l-46 928q0 12 -1 16t-1 6v6v16q-64 -4 -140 -6t-130 -6z" />
<glyph unicode="g" horiz-adv-x="1374" d="M90 1222q0 182 48 310t126 208t174 117t192 39q68 0 126 -15t105 -40t85 -57t66 -66v144l266 30q2 -58 3 -122t2 -126t2 -120t1 -102q0 -126 -3 -236t-7 -212q-8 -98 -15 -215t-26 -236t-54 -229t-96 -196t-156 -138t-233 -52q-102 0 -198 36t-176 103t-138 162t-82 211 l274 76q12 -80 47 -144t82 -108t103 -67t112 -23q62 0 106 33t74 86t48 121t28 137t14 134t6 113q-66 -70 -153 -122t-183 -54h-21q-90 0 -180 30q-101 34 -183 110t-134 195t-52 285zM338 1238q-1 -19 -1 -37q0 -74 19 -132q24 -73 69 -122t104 -71q46 -17 96 -17 q13 0 27 1h-2q70 6 123 48t90 102t56 130t21 132q-4 60 -24 126t-57 121t-88 90q-46 31 -100 31h-13q-52 -4 -106 -27t-99 -71t-77 -123t-38 -181z" />
<glyph unicode="h" horiz-adv-x="1286" d="M104 1750l340 24l-58 -776q70 58 163 94t177 36q112 0 190 -44t128 -120t77 -176t40 -214t15 -233t2 -231v-220l-268 34v32t1 41t1 40v31q0 228 -19 376t-49 235t-65 122t-67 37q-96 -10 -159 -74t-100 -159t-52 -206t-15 -213q0 -30 1 -67t3 -75t4 -73t4 -57l-288 46z " />
<glyph unicode="i" horiz-adv-x="662" d="M120 1608q0 44 16 89t46 80t74 56q40 19 92 19h10q54 0 95 -20t69 -53t43 -75t15 -84t-14 -82t-42 -72t-71 -53t-103 -23h-12q-52 0 -91 16q-43 18 -71 48t-42 71t-14 83zM184 -30v1378l296 -60l38 -1320z" />
<glyph unicode="j" horiz-adv-x="1352" d="M68 394l244 154q32 -72 71 -139t80 -118t85 -82t90 -31q20 0 44 6h-2q92 28 142 184t50 434q0 94 -8 211t-24 261l320 58q2 -42 6 -96t7 -112t5 -115t2 -105q0 -162 -19 -322t-70 -292t-139 -226t-228 -124q-68 -16 -124 -16q-72 0 -142 23t-138 78t-131 145t-121 224z M756 1556q0 44 14 86t41 75t66 54t89 21q44 0 87 -18t78 -49t57 -74t22 -93q0 -42 -17 -83t-47 -72t-71 -50t-87 -19q-44 0 -85 15t-74 43t-53 69t-20 95z" />
<glyph unicode="k" horiz-adv-x="1374" d="M116 -116l12 1948l260 20l-4 -516q110 106 226 218t218 212l218 -184l-560 -486q98 -106 204 -217t213 -224t212 -223t201 -214l-294 -136l-608 710q8 -200 16 -409t14 -401z" />
<glyph unicode="l" horiz-adv-x="454" d="M102 1762l272 38l66 -1860l-322 40z" />
<glyph unicode="m" horiz-adv-x="1880" d="M70 1748l306 2l-6 -140q52 66 122 108t158 42q16 0 33 -2t35 -6q64 -12 125 -75t93 -167q32 38 72 75t84 63t90 38q28 7 55 7l37 -3q98 -18 168 -90t118 -182t77 -250t44 -295t20 -316t5 -313v-76t-1 -84t-1 -81v-69l-326 -22q6 82 11 169t8 171t5 161t2 141 q0 228 -15 394t-40 274t-60 161t-75 55q-16 2 -45 -18t-63 -74t-72 -146t-74 -236l-232 66q4 46 11 110t7 118q0 44 -5 89t-19 79t-38 54q-18 15 -45 15q-8 0 -17 -1q-68 -8 -110 -99t-66 -231t-32 -312t-8 -342q0 -74 1 -152t3 -153t5 -142t5 -117l-300 -50z" />
<glyph unicode="n" horiz-adv-x="1460" d="M124 1786l312 44l-8 -234q74 86 173 140t219 54q104 0 188 -48t145 -126t98 -176t47 -200q8 -86 15 -199t13 -236t10 -249t7 -235t4 -193t1 -124l-318 -42q6 86 10 175t8 175t6 166t2 146t2 157q1 46 1 93.5t-1 96.5q-2 99 -13 197t-39 179t-74 136t-120 69q-14 2 -28 2 q-44 0 -82 -24q-50 -32 -91 -93t-72 -139t-52 -159t-31 -156t-10 -125q0 -90 9 -205t21 -283q2 -38 6 -88t8 -105t8 -112t8 -107l-302 10z" />
<glyph unicode="o" horiz-adv-x="1486" d="M74 968q0 136 30 264t93 232t163 175t240 93q30 4 59 6t61 2q166 0 290 -72t207 -191t124 -272t41 -315q0 -92 -17 -194t-52 -202t-89 -191t-126 -160t-163 -110t-203 -41q-110 0 -202 46t-165 123t-127 177t-91 209t-55 218t-18 203zM356 914q0 -114 29 -235t83 -217 t130 -152q59 -44 128 -44q20 0 40 4q84 14 147 67t104 131t61 175t20 197q0 118 -27 232t-79 203t-128 141q-68 47 -156 47q-10 0 -20 -1q-80 -4 -142 -52t-104 -124t-64 -173t-22 -199z" />
<glyph unicode="p" horiz-adv-x="1376" d="M98 -64v1900l234 2v-174q42 42 92 78t108 63t124 40q45 9 93 9q22 0 45 -2q90 -6 177 -45t156 -114t111 -190t42 -275v-41t-2 -43q-10 -148 -67 -256t-141 -179t-186 -105q-96 -32 -189 -32h-11q-92 2 -175 46t-147 108q4 -206 9 -419t9 -407zM384 1186q0 -42 23 -98 t64 -110t98 -96t125 -52q60 0 120 30t106 82t76 122t30 150q-6 112 -36 185t-69 116t-83 61t-78 20q-10 1 -20 1l-112 -29q-66 -34 -120 -93t-88 -135t-36 -154z" />
<glyph unicode="q" horiz-adv-x="1348" d="M86 1228q0 162 44 281t116 199t161 119t179 41q136 0 231 -55t153 -123v144l272 38l-40 -1950l-284 42l30 780q-66 -68 -152 -119t-180 -53h-11q-94 0 -180 32q-91 34 -162 106t-117 180t-56 256q-2 20 -3 42t-1 40zM324 1216q0 -78 23 -148t62 -123t90 -84t109 -31 q68 10 126 49t102 94t70 120t28 125q-4 58 -31 129t-69 131t-98 99q-51 35 -108 35h-12q-34 -2 -82 -22t-92 -65t-78 -120t-40 -189z" />
<glyph unicode="r" horiz-adv-x="1482" d="M102 1816l344 34l-16 -198q62 76 146 126t196 60h18q29 0 67 -4q51 -6 110 -26t121 -57t117 -96t99 -142t68 -197l-250 -112q-16 54 -44 120t-67 121t-89 91q-47 34 -100 34h-6q-90 -4 -157 -64t-113 -157t-74 -221t-44 -257t-21 -265t-5 -246q0 -44 1 -91t2 -92t3 -83 t2 -62l-302 -54z" />
<glyph unicode="s" horiz-adv-x="1296" d="M62 60l68 342q4 -2 19 -11t33 -20t35 -21t23 -14q38 -22 88 -50t107 -54t117 -45t118 -21h11q46 0 88 15q47 17 82 51t56 84t21 116v25t-4 29q-6 58 -41 104t-87 85t-117 73t-133 66q-100 48 -191 98t-155 116t-92 142t-28 154q0 68 21 136t57 127t87 108t111 83 q116 64 226 64q76 0 147 -30t134 -84t119 -130t102 -168l-228 -154q-26 54 -58 112t-67 106t-73 80t-76 32q-46 0 -98 -44q-44 -36 -71 -96t-27 -120q0 -36 11 -70t35 -62q40 -46 105 -79t129 -63q46 -20 87 -39t65 -33q62 -32 123 -72t112 -94t87 -126t50 -170q4 -30 6 -60 t2 -60q0 -138 -45 -237t-121 -164t-174 -97t-206 -34h-12q-108 0 -210 34q-108 36 -202 76q-18 8 -40 17t-46 18t-45 16t-35 13z" />
<glyph unicode="t" horiz-adv-x="1436" d="M40 1096l462 6q0 164 -1 343t-1 337l248 10l24 -688q120 2 251 5t245 5l72 -286l-558 2q8 -206 15 -432t17 -428l-308 -54l-4 918q-102 2 -215 2t-209 2z" />
<glyph unicode="u" horiz-adv-x="1572" d="M84 1082q0 118 5 235t13 219t15 182t11 126l294 -80q-10 -32 -21 -93t-19 -141t-13 -175t-5 -193q0 -148 10 -300t35 -280t66 -216t101 -104q9 -1 18 -1q77 0 137 79q67 88 118 234t85 328t56 360t31 331t11 241l328 -28l94 -1772q-16 -8 -58 -16q-36 -8 -102 -19 t-178 -25l12 566q-34 -114 -84 -216t-120 -176t-163 -116q-81 -37 -183 -37q-15 0 -30 1q-96 4 -167 51t-123 125t-85 183t-53 224t-28 248t-8 255z" />
<glyph unicode="v" horiz-adv-x="1754" d="M68 1628l236 220l528 -1272q118 308 241 626t239 622l306 -20l-774 -1918z" />
<glyph unicode="w" horiz-adv-x="1784" d="M76 1718l328 66q-4 -66 -7 -140t-5 -148t-3 -142t-1 -122q0 -288 17 -494t46 -337t67 -191q36 -56 73 -56h5q18 0 41 40t46 133t39 248t18 387l322 20v-202q0 -96 4 -207t18 -205t43 -152q24 -48 61 -48q8 0 16 2q50 12 82 72t51 154t26 213t7 251q0 188 -12 375t-22 343 q-2 26 -4 59t-4 67t-4 65t-4 49l294 -26q18 -236 28 -427t10 -345q0 -328 -37 -538t-98 -333t-137 -175t-154 -62q-11 -1 -22 -1q-57 0 -102 18q-54 21 -95 59t-71 90t-48 110q-58 -154 -146 -222t-176 -68q-82 10 -147 67t-114 151t-85 216t-60 261t-40 289t-25 297 t-13 285t-6 254z" />
<glyph unicode="x" horiz-adv-x="1644" d="M38 104l594 786q-76 110 -156 227t-158 228t-149 211t-127 176l188 120l562 -746l138 184t146 192t145 191t135 179l188 -120q-60 -78 -131 -177t-148 -209t-156 -226t-155 -230q70 -94 146 -194t153 -201t152 -200t143 -191l-292 -132q-34 40 -106 143t-174 257 l-184 278q-50 -76 -97 -148t-91 -136q-96 -144 -168 -249t-108 -145z" />
<glyph unicode="y" horiz-adv-x="1422" d="M54 1662l212 186l490 -582q42 72 89 152t93 160t92 158t86 148l214 -198l-420 -646q-2 -130 -4 -269t-5 -280t-5 -279t-4 -268l-290 30l12 1024q-132 158 -279 332t-281 332z" />
<glyph unicode="z" horiz-adv-x="1608" d="M22 -18l996 1592q-218 -12 -452 -25t-446 -23l4 284l1394 36l-938 -1564q222 0 457 -1t449 -1l-52 -286z" />
<glyph unicode="{" horiz-adv-x="768" d="M46 858l158 138q-42 66 -60 136t-18 146q0 102 35 206t96 194t144 161t179 109l186 -216q-68 -26 -137 -79t-125 -121t-91 -146t-35 -152q0 -64 38 -132t126 -138q-52 -38 -81 -63t-49 -43q34 -24 68 -50t56 -42q-52 -56 -77 -128t-25 -146q0 -72 18 -150t54 -147 t90 -123t124 -80l-164 -266q-78 32 -149 100t-127 160t-89 203t-33 231q0 70 11 141t35 141q-38 36 -82 79t-76 77z" />
<glyph unicode="|" horiz-adv-x="1644" d="M164 1184q0 84 24 149t66 108t96 65t114 22q50 0 103 -17t103 -50t93 -83t75 -118q72 154 179 228t209 74q56 0 106 -21t88 -62t60 -102t22 -139q0 -88 -32 -190v2q-46 -156 -128 -285t-178 -249t-197 -239t-181 -255q-52 94 -113 183t-124 176t-124 172t-112 172 t-88 175t-53 180q-4 26 -6 51t-2 53z" />
<glyph unicode="}" horiz-adv-x="730" d="M38 1754l184 218q96 -40 178 -111t143 -162t95 -193t34 -204q0 -76 -19 -150t-59 -138q38 -34 81 -72t73 -66l-158 -156q22 -70 32 -137t10 -135q0 -122 -34 -234t-90 -205t-129 -160t-151 -99l-160 268q72 26 126 80t90 124t55 148t19 150t-24 143t-74 127l120 88 q-46 52 -124 110q90 70 128 137t38 129q0 74 -35 152t-90 147t-123 122t-136 79z" />
<glyph unicode="~" horiz-adv-x="1390" d="M120 752q68 84 132 145t124 93q36 18 70 26t64 8q82 0 143 -43t113 -93q36 -34 77 -62t79 -28q24 8 64 44t98 112l206 -206q-110 -100 -193 -146t-141 -56q-42 -6 -82 4t-77 29t-71 44t-64 51q-42 36 -83 65t-75 29q-14 0 -34 -8h2q-34 -18 -65 -49t-57 -59 q-10 -12 -18 -21t-20 -20t-30 -26t-44 -35z" />
<glyph unicode="&#xa1;" horiz-adv-x="646" d="M42 1608q0 46 16 90t46 79t75 56t101 19q54 0 95 -20t70 -53t43 -75t14 -84t-14 -82t-42 -72t-71 -52t-103 -24q-58 -2 -101 16t-72 48t-43 71t-14 83zM104 -30l38 1372l254 12l72 -1380z" />
<glyph unicode="&#xa2;" horiz-adv-x="1642" d="M96 820q0 142 36 283t108 263t180 217t252 145q0 52 -1 115t-1 109l254 2l6 -188q76 -10 159 -51t149 -114t104 -176t26 -235l-252 20q-6 66 -24 113t-43 78t-55 50t-56 27q6 -148 11 -286t9 -274t9 -276t9 -292q86 56 133 166t75 234l270 -128q-16 -102 -54 -195 t-98 -170t-140 -134t-178 -87q2 -52 4 -115t4 -103l-306 2l-2 186q-146 16 -256 90t-184 185t-111 251t-37 288zM358 826q0 -90 20 -174t60 -153t101 -118t143 -69q-2 292 -4 570t-6 568q-76 -38 -134 -104t-98 -150t-61 -179t-21 -191z" />
<glyph unicode="&#xa3;" horiz-adv-x="1498" d="M76 856l34 290l242 4q4 270 117 429t299 201q70 16 124 16q92 0 172 -36t145 -103t112 -161t77 -208l-330 -52q-8 52 -25 104t-42 94t-58 68t-71 26q-28 0 -46 -8q-50 -16 -88 -55t-63 -90t-39 -110t-18 -113q104 2 221 2t213 2l-10 -256l-410 -20q12 -180 24 -345 t24 -351q154 4 326 11t322 11l8 -286l-944 -12l-44 960q-66 -4 -142 -6t-130 -6z" />
<glyph unicode="&#xa8;" horiz-adv-x="944" d="M142 2178q0 30 10 61t31 55t53 40t76 18q90 2 133 -49t43 -117q0 -34 -12 -67t-35 -59t-56 -41t-77 -15q-40 0 -71 16t-52 40t-32 55t-11 63zM602 2190q0 30 10 61t31 55t53 40t76 18q90 2 133 -49t43 -117q0 -34 -12 -67t-35 -59t-56 -41t-77 -15q-40 0 -71 16t-52 40 t-32 55t-11 63z" />
<glyph unicode="&#xa9;" horiz-adv-x="1698" d="M132 836q0 162 51 324t148 294t236 217t313 95h-2q170 8 316 -63t254 -194t170 -282t68 -327q-2 -190 -54 -348t-149 -275t-236 -187t-315 -82h-64q-186 0 -324 63t-229 174t-137 262t-46 329zM390 872q0 -138 32 -254t94 -200t152 -132t208 -52q106 -4 205 39t175 126 t121 201t43 266q-2 140 -43 263t-110 214t-161 140t-198 43h-2q-124 -6 -220 -66t-162 -153t-100 -207t-34 -228zM450 844q0 106 30 210t90 187t151 136t213 57q46 2 107 -19t114 -70t85 -130t22 -197l-244 -20q10 112 -13 159t-57 47q-54 0 -114 -42t-94 -106 q-30 -56 -47 -122t-17 -134q0 -52 12 -100t38 -85t66 -60t98 -23q50 -2 86 20t60 58t40 83t28 97l240 -70q-16 -96 -60 -173t-105 -132t-137 -85t-156 -30q-108 0 -190 46t-136 122t-82 174t-28 202z" />
<glyph unicode="&#xab;" horiz-adv-x="1638" d="M34 230l680 412l166 -228l-286 -144q78 -24 164 -50t150 -46l-118 -256zM798 292l678 412l166 -228l-286 -144q78 -24 164 -50t150 -46l-118 -256z" />
<glyph unicode="&#xad;" horiz-adv-x="934" d="M104 904l716 20l10 -288l-722 14z" />
<glyph unicode="&#xae;" horiz-adv-x="1700" d="M84 836q0 162 48 320t141 285t229 209t310 92h-2q170 8 306 -59t230 -186t146 -274t58 -323q2 -152 -39 -298t-127 -263t-216 -192t-306 -87h-62q-186 0 -321 65t-223 173t-130 248t-42 290zM342 872q0 -116 32 -225t98 -193l10 862q-70 -90 -105 -207t-35 -237z M560 1396h150v-4q52 14 99 23t91 9q122 0 203 -60t83 -194q2 -78 -27 -139t-77 -108t-110 -80t-124 -55q86 -58 181 -122t173 -118q36 70 57 152t25 166q6 118 -23 234t-87 208t-143 146t-191 48h-2q-84 -4 -153 -32t-125 -74zM590 348q46 -28 100 -44t118 -18q54 -4 103 9 t93 39l-280 264q2 -62 3 -128t3 -116zM718 1156q0 -50 2 -86t2 -96q82 26 147 74t69 120q0 12 -15 17t-37 5q-76 0 -168 -34zM1016 340q46 28 85 68t71 90z" />
<glyph unicode="&#xaf;" horiz-adv-x="898" d="M138 2308l716 20l10 -288l-722 14z" />
<glyph unicode="&#xb4;" horiz-adv-x="550" d="M96 2168l314 344l176 -176l-274 -352z" />
<glyph unicode="&#xb8;" horiz-adv-x="602" d="M44 -408l32 202q18 -8 60 -9t85 8t74 29t27 56q-2 12 -25 18t-56 6t-69 -8t-62 -26l10 280l198 38l2 -104q40 -2 83 -14t80 -36t62 -59t31 -85q10 -92 -41 -160t-133 -108t-179 -48t-179 20z" />
<glyph unicode="&#xbb;" horiz-adv-x="1534" d="M80 384l118 256l756 -312l-680 -412l-166 230l286 142q-78 24 -164 50t-150 46zM814 446l120 256l754 -314l-678 -412l-166 230l286 142q-78 24 -165 50t-151 48z" />
<glyph unicode="&#xbf;" horiz-adv-x="1456" d="M128 510q0 118 47 219t124 176t174 118t199 43h40t40 -4l-20 274l252 18l18 -720q-88 104 -161 151t-125 47q-56 0 -111 -22t-98 -64t-70 -102t-27 -134q0 -18 2 -38t6 -36q10 -52 39 -102t70 -91t93 -70t108 -41l-2 2q34 -6 56 -6q64 0 121 26t101 71t70 107t26 134 q0 32 -20 138l272 -24q4 -34 6 -62t2 -50q0 -128 -51 -231t-134 -175t-189 -111t-214 -39q-22 0 -49 3t-57 7q-90 18 -174 58t-153 97t-118 129t-71 152q-22 82 -22 152zM658 1618q0 34 12 67t35 59t57 41t78 15q40 0 70 -15t51 -39t32 -55t11 -63q0 -64 -40 -117t-130 -57 t-133 47t-43 117z" />
<glyph unicode="&#xc0;" horiz-adv-x="1584" d="M108 -52l742 2054l730 -2066l-308 -18l-132 382q-156 -20 -301 -38t-305 -36q-26 -76 -57 -168t-53 -162zM634 524q102 10 201 18t215 18q-30 84 -53 154t-46 138t-48 142t-57 166zM650 2342l176 176l316 -344l-218 -184z" />
<glyph unicode="&#xc1;" horiz-adv-x="1584" d="M108 -52l742 2054l730 -2066l-308 -18l-132 382q-156 -20 -301 -38t-305 -36q-26 -76 -57 -168t-53 -162zM634 524q102 10 201 18t215 18q-30 84 -53 154t-46 138t-48 142t-57 166zM664 2236l314 344l176 -176l-274 -352z" />
<glyph unicode="&#xc2;" horiz-adv-x="1584" d="M108 -52l742 2054l730 -2066l-308 -18l-132 382q-156 -20 -301 -38t-305 -36q-26 -76 -57 -168t-53 -162zM536 2166l350 336l352 -388l-262 -120l-106 158q-36 -40 -75 -87t-67 -81zM634 524q102 10 201 18t215 18q-30 84 -53 154t-46 138t-48 142t-57 166z" />
<glyph unicode="&#xc3;" horiz-adv-x="1584" d="M108 -52l742 2054l730 -2066l-308 -18l-132 382q-156 -20 -301 -38t-305 -36q-26 -76 -57 -168t-53 -162zM330 2208q36 42 77 90t89 88t104 67t120 27q70 0 121 -33t96 -74t90 -77t103 -42q26 8 66 44t98 112l206 -206q-110 -100 -193 -146t-143 -56q-44 -16 -84 -5 t-78 35t-74 57t-71 63t-71 51t-72 21q-32 0 -68 -26t-71 -62t-68 -73t-59 -57zM634 524q102 10 201 18t215 18q-30 84 -53 154t-46 138t-48 142t-57 166z" />
<glyph unicode="&#xc4;" horiz-adv-x="1584" d="M108 -52l742 2054l730 -2066l-308 -18l-132 382q-156 -20 -301 -38t-305 -36q-26 -76 -57 -168t-53 -162zM538 2178q0 30 10 61t31 55t53 40t76 18q90 2 133 -49t43 -117q0 -34 -12 -67t-35 -59t-56 -41t-77 -15q-40 0 -71 16t-52 40t-32 55t-11 63zM634 524 q102 10 201 18t215 18q-30 84 -53 154t-46 138t-48 142t-57 166zM998 2190q0 30 10 61t31 55t53 40t76 18q90 2 133 -49t43 -117q0 -34 -12 -67t-35 -59t-56 -41t-77 -15q-40 0 -71 16t-52 40t-32 55t-11 63z" />
<glyph unicode="&#xc5;" horiz-adv-x="1584" d="M108 -52l742 2054l730 -2066l-308 -18l-132 382q-156 -20 -301 -38t-305 -36q-26 -76 -57 -168t-53 -162zM634 524q102 10 201 18t215 18q-30 84 -53 154t-46 138t-48 142t-57 166zM658 2244q0 42 14 82t42 72t71 52t103 24q60 2 103 -15t71 -48t42 -71t14 -82 q0 -46 -16 -91t-46 -80t-75 -56t-101 -19q-54 0 -95 21t-69 53t-43 74t-15 84zM819 2252q1 -26 18 -47t49 -21t51 22t20 49t-15 49t-54 20q-36 -2 -53 -24t-16 -48z" />
<glyph unicode="&#xc6;" horiz-adv-x="2338" d="M76 -6l1060 1880l1062 16l-48 -282l-792 -4q2 -148 3 -276t3 -280q108 10 231 25t219 25l-48 -298l-400 -14q2 -76 5 -145t5 -137t4 -138t4 -148q98 4 202 9t209 9t207 9t196 9l-8 -284l-1090 2l-2 270q-140 -4 -270 -7t-274 -7q-40 -72 -84 -159t-82 -157zM706 516 q100 -2 190 -3t200 -3q-2 108 -3 191t-2 163t-2 168t-3 206z" />
<glyph unicode="&#xc7;" horiz-adv-x="1628" d="M84 974q0 154 36 304t113 276t195 221t282 141h-2q116 36 228 14t201 -89t144 -172t59 -235l-256 -74q-22 78 -47 132t-64 88t-95 46t-138 6q-52 -8 -104 -39t-98 -79t-83 -110t-59 -130q-24 -70 -35 -150t-11 -164q0 -126 28 -250t86 -222t146 -159t208 -61q16 0 41 2 t47 6q98 20 158 73t94 126t47 161t17 176l322 -62q2 -122 -30 -240t-97 -219t-159 -179t-216 -118q50 -22 86 -63t42 -105q8 -64 -13 -118t-67 -93t-115 -61t-155 -22q-34 0 -84 6t-130 22l64 224q84 -24 122 -24q46 0 81 15t35 43q0 2 -16 2h-56q-16 0 -52 -3t-94 -11 l6 166q-142 32 -256 129t-193 234t-121 302t-42 337z" />
<glyph unicode="&#xc8;" horiz-adv-x="1276" d="M160 1840l1118 54l-48 -286l-792 -4q2 -148 3 -276t3 -280q54 6 113 12t118 13t116 14t105 11l-48 -298l-402 -14q2 -76 5 -145t5 -137t5 -138t5 -148q96 4 200 9t209 9t207 9t196 9l-8 -284l-1090 2zM496 2342l176 176l316 -344l-218 -184z" />
<glyph unicode="&#xc9;" horiz-adv-x="1276" d="M160 1840l1118 54l-48 -286l-792 -4q2 -148 3 -276t3 -280q54 6 113 12t118 13t116 14t105 11l-48 -298l-402 -14q2 -76 5 -145t5 -137t5 -138t5 -148q96 4 200 9t209 9t207 9t196 9l-8 -284l-1090 2zM510 2168l314 344l176 -176l-274 -352z" />
<glyph unicode="&#xca;" horiz-adv-x="1276" d="M160 1840l1118 54l-48 -286l-792 -4q2 -148 3 -276t3 -280q54 6 113 12t118 13t116 14t105 11l-48 -298l-402 -14q2 -76 5 -145t5 -137t5 -138t5 -148q96 4 200 9t209 9t207 9t196 9l-8 -284l-1090 2zM382 2166l350 336l352 -388l-262 -120l-106 158q-36 -40 -75 -87 t-67 -81z" />
<glyph unicode="&#xcb;" horiz-adv-x="1276" d="M160 1840l1118 54l-48 -286l-792 -4q2 -148 3 -276t3 -280q54 6 113 12t118 13t116 14t105 11l-48 -298l-402 -14q2 -76 5 -145t5 -137t5 -138t5 -148q96 4 200 9t209 9t207 9t196 9l-8 -284l-1090 2zM384 2178q0 30 10 61t31 55t53 40t76 18q90 2 133 -49t43 -117 q0 -34 -12 -67t-35 -59t-56 -41t-77 -15q-40 0 -71 16t-52 40t-32 55t-11 63zM844 2190q0 30 10 61t31 55t53 40t76 18q90 2 133 -49t43 -117q0 -34 -12 -67t-35 -59t-56 -41t-77 -15q-40 0 -71 16t-52 40t-32 55t-11 63z" />
<glyph unicode="&#xcc;" horiz-adv-x="1556" d="M136 200l520 30v345t-1 337t-1 337v347q-60 -2 -125 -4t-130 -3t-127 -3t-116 -4l10 296l1312 18l50 -254l-596 -32q6 -178 12 -346t13 -335t13 -336t12 -347q120 6 256 15t250 15l-12 -312l-1306 -18zM636 2342l176 176l316 -344l-218 -184z" />
<glyph unicode="&#xcd;" horiz-adv-x="1556" d="M136 200l520 30v345t-1 337t-1 337v347q-60 -2 -125 -4t-130 -3t-127 -3t-116 -4l10 296l1312 18l50 -254l-596 -32q6 -178 12 -346t13 -335t13 -336t12 -347q120 6 256 15t250 15l-12 -312l-1306 -18zM650 2168l314 344l176 -176l-274 -352z" />
<glyph unicode="&#xce;" horiz-adv-x="1556" d="M136 200l520 30v345t-1 337t-1 337v347q-60 -2 -125 -4t-130 -3t-127 -3t-116 -4l10 296l1312 18l50 -254l-596 -32q6 -178 12 -346t13 -335t13 -336t12 -347q120 6 256 15t250 15l-12 -312l-1306 -18zM522 2166l350 336l352 -388l-262 -120l-106 158q-36 -40 -75 -87 t-67 -81z" />
<glyph unicode="&#xcf;" horiz-adv-x="1556" d="M136 200l520 30v345t-1 337t-1 337v347q-60 -2 -125 -4t-130 -3t-127 -3t-116 -4l10 296l1312 18l50 -254l-596 -32q6 -178 12 -346t13 -335t13 -336t12 -347q120 6 256 15t250 15l-12 -312l-1306 -18zM524 2178q0 30 10 61t31 55t53 40t76 18q90 2 133 -49t43 -117 q0 -34 -12 -67t-35 -59t-56 -41t-77 -15q-40 0 -71 16t-52 40t-32 55t-11 63zM984 2190q0 30 10 61t31 55t53 40t76 18q90 2 133 -49t43 -117q0 -34 -12 -67t-35 -59t-56 -41t-77 -15q-40 0 -71 16t-52 40t-32 55t-11 63z" />
<glyph unicode="&#xd0;" horiz-adv-x="1342" d="M26 1164h76q-4 176 -6 357t-6 355q64 16 120 24t102 8q184 0 348 -81t291 -217t209 -315t102 -373v-2q2 -16 3 -32t1 -36q0 -188 -92 -344t-240 -269t-332 -176t-370 -63q-12 0 -32 1t-76 7l-16 888q-22 0 -45 1t-33 1zM376 1664q2 -130 2 -245t2 -249q92 4 197 7t187 5 l10 -296l-392 8q0 -82 1 -159t3 -154t3 -155t1 -164q40 2 100 20t124 53t128 86t114 122t81 161t29 202q-8 132 -52 267t-120 244t-181 178t-235 69h-2z" />
<glyph unicode="&#xd1;" horiz-adv-x="1438" d="M164 2026l930 -1344q8 302 15 613t13 603h282l-6 -2124l-958 1344q18 -296 37 -602t37 -592l-334 -8zM256 2208q36 42 77 90t89 88t104 67t120 27q70 0 121 -33t96 -74t90 -77t103 -42q26 8 66 44t98 112l206 -206q-110 -100 -193 -146t-143 -56q-44 -16 -84 -5t-78 35 t-74 57t-71 63t-71 51t-72 21q-32 0 -68 -26t-71 -62t-68 -73t-59 -57z" />
<glyph unicode="&#xd2;" d="M180 922q0 114 20 233t60 231t99 210t137 172t176 117t214 43q92 0 175 -37t156 -103t133 -154t106 -192t77 -217t45 -227q4 -42 7 -84t3 -86q0 -144 -36 -281t-107 -249t-178 -190t-251 -108q-28 -6 -62 -8t-64 -2q-180 0 -313 79t-221 210t-132 298t-44 345zM442 964 q0 -134 32 -264t95 -231t155 -159t212 -50q94 6 164 58t117 136t70 193t23 227v37t-2 37q-6 126 -38 247t-86 214t-128 150t-166 57q-116 0 -201 -63t-140 -159t-81 -211t-26 -219zM678 2342l176 176l316 -344l-218 -184z" />
<glyph unicode="&#xd3;" d="M180 922q0 114 20 233t60 231t99 210t137 172t176 117t214 43q92 0 175 -37t156 -103t133 -154t106 -192t77 -217t45 -227q4 -42 7 -84t3 -86q0 -144 -36 -281t-107 -249t-178 -190t-251 -108q-28 -6 -62 -8t-64 -2q-180 0 -313 79t-221 210t-132 298t-44 345zM442 964 q0 -134 32 -264t95 -231t155 -159t212 -50q94 6 164 58t117 136t70 193t23 227v37t-2 37q-6 126 -38 247t-86 214t-128 150t-166 57q-116 0 -201 -63t-140 -159t-81 -211t-26 -219zM692 2168l314 344l176 -176l-274 -352z" />
<glyph unicode="&#xd4;" d="M180 922q0 114 20 233t60 231t99 210t137 172t176 117t214 43q92 0 175 -37t156 -103t133 -154t106 -192t77 -217t45 -227q4 -42 7 -84t3 -86q0 -144 -36 -281t-107 -249t-178 -190t-251 -108q-28 -6 -62 -8t-64 -2q-180 0 -313 79t-221 210t-132 298t-44 345zM442 964 q0 -134 32 -264t95 -231t155 -159t212 -50q94 6 164 58t117 136t70 193t23 227v37t-2 37q-6 126 -38 247t-86 214t-128 150t-166 57q-116 0 -201 -63t-140 -159t-81 -211t-26 -219zM564 2166l350 336l352 -388l-262 -120l-106 158q-36 -40 -75 -87t-67 -81z" />
<glyph unicode="&#xd5;" d="M180 922q0 114 20 233t60 231t99 210t137 172t176 117t214 43q92 0 175 -37t156 -103t133 -154t106 -192t77 -217t45 -227q4 -42 7 -84t3 -86q0 -144 -36 -281t-107 -249t-178 -190t-251 -108q-28 -6 -62 -8t-64 -2q-180 0 -313 79t-221 210t-132 298t-44 345zM358 2208 q36 42 77 90t89 88t104 67t120 27q70 0 121 -33t96 -74t90 -77t103 -42q26 8 66 44t98 112l206 -206q-110 -100 -193 -146t-143 -56q-44 -16 -84 -5t-78 35t-74 57t-71 63t-71 51t-72 21q-32 0 -68 -26t-71 -62t-68 -73t-59 -57zM442 964q0 -134 32 -264t95 -231t155 -159 t212 -50q94 6 164 58t117 136t70 193t23 227v37t-2 37q-6 126 -38 247t-86 214t-128 150t-166 57q-116 0 -201 -63t-140 -159t-81 -211t-26 -219z" />
<glyph unicode="&#xd6;" d="M180 922q0 114 20 233t60 231t99 210t137 172t176 117t214 43q92 0 175 -37t156 -103t133 -154t106 -192t77 -217t45 -227q4 -42 7 -84t3 -86q0 -144 -36 -281t-107 -249t-178 -190t-251 -108q-28 -6 -62 -8t-64 -2q-180 0 -313 79t-221 210t-132 298t-44 345zM442 964 q0 -134 32 -264t95 -231t155 -159t212 -50q94 6 164 58t117 136t70 193t23 227v37t-2 37q-6 126 -38 247t-86 214t-128 150t-166 57q-116 0 -201 -63t-140 -159t-81 -211t-26 -219zM566 2178q0 30 10 61t31 55t53 40t76 18q90 2 133 -49t43 -117q0 -34 -12 -67t-35 -59 t-56 -41t-77 -15q-40 0 -71 16t-52 40t-32 55t-11 63zM1026 2190q0 30 10 61t31 55t53 40t76 18q90 2 133 -49t43 -117q0 -34 -12 -67t-35 -59t-56 -41t-77 -15q-40 0 -71 16t-52 40t-32 55t-11 63z" />
<glyph unicode="&#xd7;" horiz-adv-x="870" d="M102 878l186 220l160 -156q36 42 76 88t70 80l218 -184l-162 -172q40 -38 84 -80t78 -72l-168 -194l-178 152q-36 -40 -77 -84t-71 -76l-192 166l144 166q-40 34 -88 76z" />
<glyph unicode="&#xd8;" d="M120 920q0 164 37 324t110 295t182 234t255 139q64 16 120 16q62 0 118 -16t110 -46q10 22 18 43t14 35l252 -70l-74 -196q102 -134 168 -313t88 -367q4 -42 7 -84t3 -86q0 -148 -33 -287t-102 -251t-178 -189t-261 -101q-30 -4 -60 -7t-62 -3q-56 0 -106 8t-96 22 q-12 -34 -24 -67t-20 -53l-286 138l62 158q-124 134 -183 326t-59 398zM382 964q0 -126 27 -243t81 -215q114 276 223 539t225 545q-52 26 -110 26q-12 0 -23 -1t-21 -3l-2 -2q-102 -18 -177 -78t-125 -149t-74 -197t-24 -222zM728 278q66 -24 148 -18q94 6 164 58t117 136 t70 193t23 227v37t-2 37q-8 116 -33 223t-71 197q-106 -280 -207 -543t-209 -547z" />
<glyph unicode="&#xd9;" horiz-adv-x="1466" d="M169 1560q5 196 7 350l308 -40q-12 -72 -19 -180t-8 -236t5 -268t21 -274t40 -254t62 -210t86 -140t113 -46q98 8 164 103t107 251t58 357t17 421q0 54 -2 119t-5 131t-6 131t-7 121l310 10v-130q0 -418 -35 -757t-113 -575t-203 -356t-305 -100q-170 26 -280 135 t-176 271t-96 361t-39 404t-4 401zM592 2342l176 176l316 -344l-218 -184z" />
<glyph unicode="&#xda;" horiz-adv-x="1466" d="M169 1560q5 196 7 350l308 -40q-12 -72 -19 -180t-8 -236t5 -268t21 -274t40 -254t62 -210t86 -140t113 -46q98 8 164 103t107 251t58 357t17 421q0 54 -2 119t-5 131t-6 131t-7 121l310 10v-130q0 -418 -35 -757t-113 -575t-203 -356t-305 -100q-170 26 -280 135 t-176 271t-96 361t-39 404t-4 401zM606 2168l314 344l176 -176l-274 -352z" />
<glyph unicode="&#xdb;" horiz-adv-x="1466" d="M169 1560q5 196 7 350l308 -40q-12 -72 -19 -180t-8 -236t5 -268t21 -274t40 -254t62 -210t86 -140t113 -46q98 8 164 103t107 251t58 357t17 421q0 54 -2 119t-5 131t-6 131t-7 121l310 10v-130q0 -418 -35 -757t-113 -575t-203 -356t-305 -100q-170 26 -280 135 t-176 271t-96 361t-39 404t-4 401zM478 2166l350 336l352 -388l-262 -120l-106 158q-36 -40 -75 -87t-67 -81z" />
<glyph unicode="&#xdc;" horiz-adv-x="1466" d="M169 1560q5 196 7 350l308 -40q-12 -72 -19 -180t-8 -236t5 -268t21 -274t40 -254t62 -210t86 -140t113 -46q98 8 164 103t107 251t58 357t17 421q0 54 -2 119t-5 131t-6 131t-7 121l310 10v-130q0 -418 -35 -757t-113 -575t-203 -356t-305 -100q-170 26 -280 135 t-176 271t-96 361t-39 404t-4 401zM480 2178q0 30 10 61t31 55t53 40t76 18q90 2 133 -49t43 -117q0 -34 -12 -67t-35 -59t-56 -41t-77 -15q-40 0 -71 16t-52 40t-32 55t-11 63zM940 2190q0 30 10 61t31 55t53 40t76 18q90 2 133 -49t43 -117q0 -34 -12 -67t-35 -59t-56 -41 t-77 -15q-40 0 -71 16t-52 40t-32 55t-11 63z" />
<glyph unicode="&#xdd;" horiz-adv-x="1348" d="M150 640q0 16 1 38t5 82l328 -34q-8 -52 -11 -86t-3 -52q0 -80 23 -155t65 -131t102 -86t136 -20q80 10 132 73t82 162t41 223t11 254q0 98 -5 195t-13 187q-28 -64 -64 -122t-84 -102t-108 -69t-134 -25q-28 0 -45 2t-35 6q-92 18 -157 68t-108 122t-68 160t-38 183 t-17 190t-6 183l284 4v-98q0 -22 -1 -46t-1 -52q0 -70 5 -149t25 -147t57 -115t101 -49q42 -2 77 32t62 89t47 128t33 148t19 149t6 132l362 10q4 -58 9 -115t13 -113q10 -76 22 -172t22 -205t17 -226t7 -237q0 -188 -23 -366t-84 -316t-165 -221t-266 -83q-140 0 -260 58 t-209 160t-139 244t-50 310zM546 2168l314 344l176 -176l-274 -352z" />
<glyph unicode="&#xde;" horiz-adv-x="1270" d="M54 -292l78 1868l274 22l-4 -528q72 64 167 103t195 35q104 -4 187 -59t141 -136t90 -177t36 -184q2 -140 -43 -259t-120 -206t-171 -136t-194 -51q-132 -2 -208 34t-126 88q-4 -116 -8 -236t-6 -222zM418 612q0 -78 23 -141t59 -108t80 -71t86 -28q36 -2 82 20t87 64 t71 104t32 140q2 54 -13 116t-46 114t-78 87t-111 35q-54 0 -103 -36t-86 -87t-60 -108t-23 -101z" />
<glyph unicode="&#xdf;" horiz-adv-x="1242" d="M106 1198q-2 150 33 256t93 178t132 114t150 62q32 8 63 12t65 4q78 0 153 -24t132 -69t92 -110t35 -149q0 -46 -12 -96q-34 -118 -121 -202t-195 -134q76 -20 134 -50t101 -64t74 -72t51 -74q48 -84 58 -180q0 -222 -176 -384t-520 -232l-22 230q110 26 196 67t143 90 t85 102t26 105q-10 56 -49 100t-100 76t-138 53t-161 33v340q54 18 115 44t115 56t93 65t51 75q0 8 1 19t1 21q0 32 -15 54t-39 36t-55 21t-63 7q-40 0 -70 -8q-46 -14 -86 -38t-68 -84t-45 -168t-19 -292t11 -456t45 -658l-284 12z" />
<glyph unicode="&#xe0;" horiz-adv-x="1542" d="M184 818q0 18 1 36t1 36q4 90 21 200t52 222t88 216t128 182t172 121t221 35q90 -8 170 -48t144 -104q-4 42 -5 82t-3 72l302 -26l-26 -1792l-266 -10v362q-36 -74 -81 -143t-102 -124t-126 -90t-151 -41q-154 -12 -257 55t-166 184t-90 268t-27 307zM442 818 q0 -148 21 -253t57 -172t85 -97t103 -30q64 0 125 65t110 164t83 215t46 222q12 116 12 208q0 118 -18 203t-50 140t-74 83t-92 34q-82 0 -152 -60t-123 -160t-87 -231t-44 -271q0 -12 -1 -31t-1 -29zM630 2342l176 176l316 -344l-218 -184z" />
<glyph unicode="&#xe1;" horiz-adv-x="1542" d="M184 818q0 18 1 36t1 36q4 90 21 200t52 222t88 216t128 182t172 121t221 35q90 -8 170 -48t144 -104q-4 42 -5 82t-3 72l302 -26l-26 -1792l-266 -10v362q-36 -74 -81 -143t-102 -124t-126 -90t-151 -41q-154 -12 -257 55t-166 184t-90 268t-27 307zM442 818 q0 -148 21 -253t57 -172t85 -97t103 -30q64 0 125 65t110 164t83 215t46 222q12 116 12 208q0 118 -18 203t-50 140t-74 83t-92 34q-82 0 -152 -60t-123 -160t-87 -231t-44 -271q0 -12 -1 -31t-1 -29zM644 2168l314 344l176 -176l-274 -352z" />
<glyph unicode="&#xe2;" horiz-adv-x="1542" d="M184 818q0 18 1 36t1 36q4 90 21 200t52 222t88 216t128 182t172 121t221 35q90 -8 170 -48t144 -104q-4 42 -5 82t-3 72l302 -26l-26 -1792l-266 -10v362q-36 -74 -81 -143t-102 -124t-126 -90t-151 -41q-154 -12 -257 55t-166 184t-90 268t-27 307zM442 818 q0 -148 21 -253t57 -172t85 -97t103 -30q64 0 125 65t110 164t83 215t46 222q12 116 12 208q0 118 -18 203t-50 140t-74 83t-92 34q-82 0 -152 -60t-123 -160t-87 -231t-44 -271q0 -12 -1 -31t-1 -29zM516 2166l350 336l352 -388l-262 -120l-106 158q-36 -40 -75 -87 t-67 -81z" />
<glyph unicode="&#xe3;" horiz-adv-x="1542" d="M184 818q0 18 1 36t1 36q4 90 21 200t52 222t88 216t128 182t172 121t221 35q90 -8 170 -48t144 -104q-4 42 -5 82t-3 72l302 -26l-26 -1792l-266 -10v362q-36 -74 -81 -143t-102 -124t-126 -90t-151 -41q-154 -12 -257 55t-166 184t-90 268t-27 307zM308 2208 q36 42 77 90t89 88t104 67t120 27q70 0 121 -33t96 -74t90 -77t103 -42q26 8 66 44t98 112l206 -206q-110 -100 -193 -146t-143 -56q-44 -16 -84 -5t-78 35t-74 57t-71 63t-71 51t-72 21q-32 0 -68 -26t-71 -62t-68 -73t-59 -57zM442 818q0 -148 21 -253t57 -172t85 -97 t103 -30q64 0 125 65t110 164t83 215t46 222q12 116 12 208q0 118 -18 203t-50 140t-74 83t-92 34q-82 0 -152 -60t-123 -160t-87 -231t-44 -271q0 -12 -1 -31t-1 -29z" />
<glyph unicode="&#xe4;" horiz-adv-x="1542" d="M184 818q0 18 1 36t1 36q4 90 21 200t52 222t88 216t128 182t172 121t221 35q90 -8 170 -48t144 -104q-4 42 -5 82t-3 72l302 -26l-26 -1792l-266 -10v362q-36 -74 -81 -143t-102 -124t-126 -90t-151 -41q-154 -12 -257 55t-166 184t-90 268t-27 307zM442 818 q0 -148 21 -253t57 -172t85 -97t103 -30q64 0 125 65t110 164t83 215t46 222q12 116 12 208q0 118 -18 203t-50 140t-74 83t-92 34q-82 0 -152 -60t-123 -160t-87 -231t-44 -271q0 -12 -1 -31t-1 -29zM518 2178q0 30 10 61t31 55t53 40t76 18q90 2 133 -49t43 -117 q0 -34 -12 -67t-35 -59t-56 -41t-77 -15q-40 0 -71 16t-52 40t-32 55t-11 63zM978 2190q0 30 10 61t31 55t53 40t76 18q90 2 133 -49t43 -117q0 -34 -12 -67t-35 -59t-56 -41t-77 -15q-40 0 -71 16t-52 40t-32 55t-11 63z" />
<glyph unicode="&#xe5;" horiz-adv-x="1542" d="M184 818q0 18 1 36t1 36q4 90 21 200t52 222t88 216t128 182t172 121t221 35q90 -8 170 -48t144 -104q-4 42 -5 82t-3 72l302 -26l-26 -1792l-266 -10v362q-36 -74 -81 -143t-102 -124t-126 -90t-151 -41q-154 -12 -257 55t-166 184t-90 268t-27 307zM442 818 q0 -148 21 -253t57 -172t85 -97t103 -30q64 0 125 65t110 164t83 215t46 222q12 116 12 208q0 118 -18 203t-50 140t-74 83t-92 34q-82 0 -152 -60t-123 -160t-87 -231t-44 -271q0 -12 -1 -31t-1 -29zM638 2244q0 42 14 82t42 72t71 52t103 24q60 2 103 -15t71 -48t42 -71 t14 -82q0 -46 -16 -91t-46 -80t-75 -56t-101 -19q-54 0 -95 21t-69 53t-43 74t-15 84zM799 2252q1 -26 18 -47t49 -21t51 22t20 49t-15 49t-54 20q-36 -2 -53 -24t-16 -48z" />
<glyph unicode="&#xe6;" horiz-adv-x="2384" d="M112 808q0 16 1 35t1 35q4 90 21 200t52 222t88 216t128 182t172 122t221 34q88 -8 177 -58t153 -114q100 82 217 126t231 44q18 0 33 -1t29 -3q104 -12 197 -63t164 -147t114 -237t45 -331l-1046 28q-4 -50 -7 -94t-3 -86q0 -138 26 -252t74 -197t115 -133t151 -58 q42 0 102 20t117 71t103 139t60 224l334 -40q-38 -198 -107 -333t-162 -216t-210 -117t-251 -36q-70 0 -132 18t-117 50t-102 76t-85 96q-66 -96 -158 -161t-208 -77q-148 -6 -251 62t-167 184t-92 265t-28 305zM370 808q0 -148 21 -253t57 -172t84 -97t102 -30q70 2 135 75 t117 187q-38 120 -55 246t-13 240q2 138 37 256t93 214q-30 58 -73 85t-97 31q-86 6 -157 -52t-123 -159t-85 -234t-41 -277q0 -12 -1 -31t-1 -29zM1182 1378q70 -2 137 -2h131h118h77h64t63 -1t74 -3q-14 32 -39 68t-58 65t-72 49t-81 24q-58 2 -118 -11t-116 -39t-103 -64 t-77 -86z" />
<glyph unicode="&#xe7;" horiz-adv-x="1642" d="M102 854q0 172 47 342t141 309t238 233t336 114q74 8 169 -25t177 -105t133 -184t37 -262l-254 20q-8 102 -47 160t-85 85t-89 32t-57 5q-50 0 -102 -24t-101 -63t-92 -93t-75 -114q-54 -100 -86 -222t-32 -248q0 -96 26 -185t79 -159t131 -116t180 -54q96 0 164 39 t116 102t78 144t50 165l270 -128q-16 -98 -55 -189t-98 -167t-138 -135t-173 -91q58 -22 104 -64t54 -112q6 -60 -20 -114t-75 -95t-115 -66t-136 -25q-38 0 -89 14t-115 44l94 196q30 -10 53 -15t35 -5q40 0 77 14t37 42q0 2 -70 2q-16 0 -51 -2t-91 -10l6 162 q-146 16 -256 92t-183 193t-110 263t-37 300z" />
<glyph unicode="&#xe8;" horiz-adv-x="1554" d="M134 1004q4 198 73 355t177 267t242 168t266 58q16 0 31 -1t29 -3q104 -12 197 -63t164 -147t114 -237t47 -331l-1046 28q-6 -50 -8 -94t-2 -86q0 -138 26 -252t73 -197t114 -133t151 -58q42 0 102 20t118 71t103 139t61 224l332 -40q-38 -198 -107 -333t-162 -216 t-209 -117t-250 -36q-118 -2 -211 43t-164 122t-121 178t-82 214t-46 231t-12 226zM500 1378q68 -2 135 -2h133h116h77h64t64 -1t75 -3q-14 32 -39 68t-58 65t-72 49t-81 24q-58 2 -119 -11t-117 -39t-103 -64t-75 -86zM636 2342l176 176l316 -344l-218 -184z" />
<glyph unicode="&#xe9;" horiz-adv-x="1554" d="M134 1004q4 198 73 355t177 267t242 168t266 58q16 0 31 -1t29 -3q104 -12 197 -63t164 -147t114 -237t47 -331l-1046 28q-6 -50 -8 -94t-2 -86q0 -138 26 -252t73 -197t114 -133t151 -58q42 0 102 20t118 71t103 139t61 224l332 -40q-38 -198 -107 -333t-162 -216 t-209 -117t-250 -36q-118 -2 -211 43t-164 122t-121 178t-82 214t-46 231t-12 226zM500 1378q68 -2 135 -2h133h116h77h64t64 -1t75 -3q-14 32 -39 68t-58 65t-72 49t-81 24q-58 2 -119 -11t-117 -39t-103 -64t-75 -86zM650 2168l314 344l176 -176l-274 -352z" />
<glyph unicode="&#xea;" horiz-adv-x="1554" d="M134 1004q4 198 73 355t177 267t242 168t266 58q16 0 31 -1t29 -3q104 -12 197 -63t164 -147t114 -237t47 -331l-1046 28q-6 -50 -8 -94t-2 -86q0 -138 26 -252t73 -197t114 -133t151 -58q42 0 102 20t118 71t103 139t61 224l332 -40q-38 -198 -107 -333t-162 -216 t-209 -117t-250 -36q-118 -2 -211 43t-164 122t-121 178t-82 214t-46 231t-12 226zM500 1378q68 -2 135 -2h133h116h77h64t64 -1t75 -3q-14 32 -39 68t-58 65t-72 49t-81 24q-58 2 -119 -11t-117 -39t-103 -64t-75 -86zM522 2166l350 336l352 -388l-262 -120l-106 158 q-36 -40 -75 -87t-67 -81z" />
<glyph unicode="&#xeb;" horiz-adv-x="1554" d="M134 1004q4 198 73 355t177 267t242 168t266 58q16 0 31 -1t29 -3q104 -12 197 -63t164 -147t114 -237t47 -331l-1046 28q-6 -50 -8 -94t-2 -86q0 -138 26 -252t73 -197t114 -133t151 -58q42 0 102 20t118 71t103 139t61 224l332 -40q-38 -198 -107 -333t-162 -216 t-209 -117t-250 -36q-118 -2 -211 43t-164 122t-121 178t-82 214t-46 231t-12 226zM500 1378q68 -2 135 -2h133h116h77h64t64 -1t75 -3q-14 32 -39 68t-58 65t-72 49t-81 24q-58 2 -119 -11t-117 -39t-103 -64t-75 -86zM524 2178q0 30 10 61t31 55t53 40t76 18q90 2 133 -49 t43 -117q0 -34 -12 -67t-35 -59t-56 -41t-77 -15q-40 0 -71 16t-52 40t-32 55t-11 63zM984 2190q0 30 10 61t31 55t53 40t76 18q90 2 133 -49t43 -117q0 -34 -12 -67t-35 -59t-56 -41t-77 -15q-40 0 -71 16t-52 40t-32 55t-11 63z" />
<glyph unicode="&#xec;" horiz-adv-x="662" d="M190 2342l176 176l316 -344l-218 -184zM244 -30l20 1828l298 -60l14 -1770z" />
<glyph unicode="&#xed;" horiz-adv-x="662" d="M204 2168l314 344l176 -176l-274 -352zM244 -30l20 1828l298 -60l14 -1770z" />
<glyph unicode="&#xee;" horiz-adv-x="662" d="M78 2166l350 336l352 -388l-262 -120l-106 158q-36 -40 -75 -87t-67 -81zM244 -30l20 1828l298 -60l14 -1770z" />
<glyph unicode="&#xef;" horiz-adv-x="662" d="M80 2178q0 30 10 61t31 55t53 40t76 18q90 2 133 -49t43 -117q0 -34 -12 -67t-35 -59t-56 -41t-77 -15q-40 0 -71 16t-52 40t-32 55t-11 63zM244 -30l20 1828l298 -60l14 -1770zM540 2190q0 30 10 61t31 55t53 40t76 18q90 2 133 -49t43 -117q0 -34 -12 -67t-35 -59 t-56 -41t-77 -15q-40 0 -71 16t-52 40t-32 55t-11 63z" />
<glyph unicode="&#xf0;" horiz-adv-x="1528" d="M114 538q0 108 37 201t105 160t164 106t214 39q130 0 258 -46t230 -132q-46 184 -162 372q-56 -38 -121 -78t-111 -72l-148 206l214 152q-64 62 -132 97t-138 35q-56 0 -152 -42l-132 236q168 66 282 66q144 0 267 -60t231 -172q36 26 77 55t69 49l166 -234l-140 -94 q76 -126 127 -271t73 -291q6 -34 8 -71t2 -77q0 -128 -35 -253t-108 -223t-184 -158t-263 -60q-124 0 -248 33t-224 102t-163 175t-63 250zM378 524q0 -68 36 -123t91 -93t123 -58t134 -20q48 0 99 9t94 33t71 64t28 100q0 50 -21 103t-61 98t-97 78t-129 45q-46 6 -80 6 q-72 0 -126 -22t-90 -56t-54 -77t-18 -87z" />
<glyph unicode="&#xf1;" horiz-adv-x="1460" d="M184 1786l312 44l-8 -234q74 86 173 140t219 54q104 0 188 -48t145 -126t98 -176t47 -200q8 -86 15 -199t13 -236t10 -249t7 -235t4 -193t1 -124l-318 -42q6 86 10 175t8 175t6 166t2 146t2 157t0 190t-13 197t-39 179t-74 136t-120 69q-60 10 -110 -22t-91 -93t-72 -139 t-52 -159t-31 -156t-10 -125q0 -90 9 -205t21 -283q2 -38 6 -88t8 -105t8 -112t8 -107l-302 10zM268 2208q36 42 77 90t89 88t104 67t120 27q70 0 121 -33t96 -74t90 -77t103 -42q26 8 66 44t98 112l206 -206q-110 -100 -193 -146t-143 -56q-44 -16 -84 -5t-78 35t-74 57 t-71 63t-71 51t-72 21q-32 0 -68 -26t-71 -62t-68 -73t-59 -57z" />
<glyph unicode="&#xf2;" horiz-adv-x="1486" d="M134 968q0 136 30 264t93 232t163 175t240 93q30 4 59 6t61 2q166 0 290 -72t207 -191t124 -272t41 -315q0 -92 -17 -194t-52 -202t-89 -191t-126 -160t-163 -110t-203 -41q-110 0 -202 46t-165 123t-127 177t-91 209t-55 218t-18 203zM416 914q0 -114 29 -235t83 -217 t130 -152t168 -40q84 14 147 67t104 131t61 175t20 197q0 118 -27 232t-79 203t-128 141t-176 46q-80 -4 -142 -52t-104 -124t-64 -173t-22 -199zM602 2342l176 176l316 -344l-218 -184z" />
<glyph unicode="&#xf3;" horiz-adv-x="1486" d="M134 968q0 136 30 264t93 232t163 175t240 93q30 4 59 6t61 2q166 0 290 -72t207 -191t124 -272t41 -315q0 -92 -17 -194t-52 -202t-89 -191t-126 -160t-163 -110t-203 -41q-110 0 -202 46t-165 123t-127 177t-91 209t-55 218t-18 203zM416 914q0 -114 29 -235t83 -217 t130 -152t168 -40q84 14 147 67t104 131t61 175t20 197q0 118 -27 232t-79 203t-128 141t-176 46q-80 -4 -142 -52t-104 -124t-64 -173t-22 -199zM616 2168l314 344l176 -176l-274 -352z" />
<glyph unicode="&#xf4;" horiz-adv-x="1486" d="M134 968q0 136 30 264t93 232t163 175t240 93q30 4 59 6t61 2q166 0 290 -72t207 -191t124 -272t41 -315q0 -92 -17 -194t-52 -202t-89 -191t-126 -160t-163 -110t-203 -41q-110 0 -202 46t-165 123t-127 177t-91 209t-55 218t-18 203zM416 914q0 -114 29 -235t83 -217 t130 -152t168 -40q84 14 147 67t104 131t61 175t20 197q0 118 -27 232t-79 203t-128 141t-176 46q-80 -4 -142 -52t-104 -124t-64 -173t-22 -199zM488 2166l350 336l352 -388l-262 -120l-106 158q-36 -40 -75 -87t-67 -81z" />
<glyph unicode="&#xf5;" horiz-adv-x="1486" d="M134 968q0 136 30 264t93 232t163 175t240 93q30 4 59 6t61 2q166 0 290 -72t207 -191t124 -272t41 -315q0 -92 -17 -194t-52 -202t-89 -191t-126 -160t-163 -110t-203 -41q-110 0 -202 46t-165 123t-127 177t-91 209t-55 218t-18 203zM280 2208q36 42 77 90t89 88 t104 67t120 27q70 0 121 -33t96 -74t90 -77t103 -42q26 8 66 44t98 112l206 -206q-110 -100 -193 -146t-143 -56q-44 -16 -84 -5t-78 35t-74 57t-71 63t-71 51t-72 21q-32 0 -68 -26t-71 -62t-68 -73t-59 -57zM416 914q0 -114 29 -235t83 -217t130 -152t168 -40 q84 14 147 67t104 131t61 175t20 197q0 118 -27 232t-79 203t-128 141t-176 46q-80 -4 -142 -52t-104 -124t-64 -173t-22 -199z" />
<glyph unicode="&#xf6;" horiz-adv-x="1486" d="M134 968q0 136 30 264t93 232t163 175t240 93q30 4 59 6t61 2q166 0 290 -72t207 -191t124 -272t41 -315q0 -92 -17 -194t-52 -202t-89 -191t-126 -160t-163 -110t-203 -41q-110 0 -202 46t-165 123t-127 177t-91 209t-55 218t-18 203zM416 914q0 -114 29 -235t83 -217 t130 -152t168 -40q84 14 147 67t104 131t61 175t20 197q0 118 -27 232t-79 203t-128 141t-176 46q-80 -4 -142 -52t-104 -124t-64 -173t-22 -199zM490 2178q0 30 10 61t31 55t53 40t76 18q90 2 133 -49t43 -117q0 -34 -12 -67t-35 -59t-56 -41t-77 -15q-40 0 -71 16t-52 40 t-32 55t-11 63zM950 2190q0 30 10 61t31 55t53 40t76 18q90 2 133 -49t43 -117q0 -34 -12 -67t-35 -59t-56 -41t-77 -15q-40 0 -71 16t-52 40t-32 55t-11 63z" />
<glyph unicode="&#xf7;" horiz-adv-x="904" d="M110 904l716 20l10 -288l-722 14zM296 1242q0 32 10 62t31 54t54 39t77 17t77 -12t54 -37t31 -53t10 -62q0 -34 -12 -67t-35 -59t-56 -41t-77 -15q-40 0 -71 16t-52 40t-31 55t-10 63zM304 308q0 64 40 117t130 57t133 -47t43 -117q0 -34 -12 -67t-35 -59t-56 -41 t-77 -15q-40 0 -71 15t-52 39t-32 55t-11 63z" />
<glyph unicode="&#xf8;" horiz-adv-x="1486" d="M74 968q0 136 30 264t93 232t163 175t240 93q30 4 59 6t61 2q102 0 192 -28q18 42 38 91t34 83l246 -68l-94 -246q60 -62 106 -140t77 -167t47 -185t16 -192q0 -146 -34 -288t-100 -262t-166 -207t-232 -123q-32 -10 -61 -13t-57 -3q-96 0 -186 40q-12 -32 -24 -68 t-22 -58l-278 132l82 196q-90 114 -147 264t-73 312q-4 40 -7 79t-3 79zM356 890q0 -12 2 -26v-2q4 -80 23 -164t47 -158q48 116 94 228t92 223t93 224t95 231q-26 10 -57 13t-57 3q-76 -10 -138 -59t-105 -124t-66 -170t-23 -195v-24zM644 282q54 -22 122 -12q84 14 147 67 t104 131t61 174t20 196q0 108 -22 212t-66 190q-94 -244 -183 -476t-183 -482z" />
<glyph unicode="&#xf9;" horiz-adv-x="1572" d="M144 1082q0 118 5 235t13 219t15 182t11 126l294 -80q-10 -32 -21 -93t-19 -141t-13 -175t-5 -193q0 -148 10 -300t35 -280t66 -216t101 -104q88 -10 155 78t118 234t85 328t56 360t31 331t11 241l328 -28l94 -1772q-16 -8 -58 -16q-36 -8 -102 -19t-178 -25l12 566 q-34 -114 -84 -216t-120 -176t-163 -116t-213 -36q-96 4 -167 51t-123 125t-85 183t-53 224t-28 248t-8 255zM644 2342l176 176l316 -344l-218 -184z" />
<glyph unicode="&#xfa;" horiz-adv-x="1572" d="M144 1082q0 118 5 235t13 219t15 182t11 126l294 -80q-10 -32 -21 -93t-19 -141t-13 -175t-5 -193q0 -148 10 -300t35 -280t66 -216t101 -104q88 -10 155 78t118 234t85 328t56 360t31 331t11 241l328 -28l94 -1772q-16 -8 -58 -16q-36 -8 -102 -19t-178 -25l12 566 q-34 -114 -84 -216t-120 -176t-163 -116t-213 -36q-96 4 -167 51t-123 125t-85 183t-53 224t-28 248t-8 255zM658 2168l314 344l176 -176l-274 -352z" />
<glyph unicode="&#xfb;" horiz-adv-x="1572" d="M144 1082q0 118 5 235t13 219t15 182t11 126l294 -80q-10 -32 -21 -93t-19 -141t-13 -175t-5 -193q0 -148 10 -300t35 -280t66 -216t101 -104q88 -10 155 78t118 234t85 328t56 360t31 331t11 241l328 -28l94 -1772q-16 -8 -58 -16q-36 -8 -102 -19t-178 -25l12 566 q-34 -114 -84 -216t-120 -176t-163 -116t-213 -36q-96 4 -167 51t-123 125t-85 183t-53 224t-28 248t-8 255zM530 2166l350 336l352 -388l-262 -120l-106 158q-36 -40 -75 -87t-67 -81z" />
<glyph unicode="&#xfc;" horiz-adv-x="1572" d="M144 1082q0 118 5 235t13 219t15 182t11 126l294 -80q-10 -32 -21 -93t-19 -141t-13 -175t-5 -193q0 -148 10 -300t35 -280t66 -216t101 -104q88 -10 155 78t118 234t85 328t56 360t31 331t11 241l328 -28l94 -1772q-16 -8 -58 -16q-36 -8 -102 -19t-178 -25l12 566 q-34 -114 -84 -216t-120 -176t-163 -116t-213 -36q-96 4 -167 51t-123 125t-85 183t-53 224t-28 248t-8 255zM532 2178q0 30 10 61t31 55t53 40t76 18q90 2 133 -49t43 -117q0 -34 -12 -67t-35 -59t-56 -41t-77 -15q-40 0 -71 16t-52 40t-32 55t-11 63zM992 2190q0 30 10 61 t31 55t53 40t76 18q90 2 133 -49t43 -117q0 -34 -12 -67t-35 -59t-56 -41t-77 -15q-40 0 -71 16t-52 40t-32 55t-11 63z" />
<glyph unicode="&#xfd;" horiz-adv-x="1422" d="M114 1662l212 186l490 -582q42 72 89 152t93 160t92 158t86 148l214 -198l-420 -646q-2 -130 -4 -269t-5 -280t-5 -279t-4 -268l-290 30l12 1024q-132 158 -279 332t-281 332zM584 2168l314 344l176 -176l-274 -352z" />
<glyph unicode="&#xfe;" horiz-adv-x="1270" d="M66 26l74 1812l266 22l-4 -512q70 60 162 99t188 35q102 -4 183 -57t137 -132t87 -172t35 -179q2 -136 -42 -251t-117 -199t-166 -132t-187 -50q-64 -2 -113 7t-88 25t-69 38t-54 48q-4 -112 -8 -229t-6 -215zM418 904q0 -76 22 -137t57 -105t78 -69t83 -27q34 -2 79 19 t85 62t69 101t31 136q2 52 -12 112t-44 111t-76 85t-108 34q-52 0 -100 -35t-84 -84t-58 -105t-22 -98z" />
<glyph unicode="&#xff;" horiz-adv-x="1422" d="M114 1662l212 186l490 -582q42 72 89 152t93 160t92 158t86 148l214 -198l-420 -646q-2 -130 -4 -269t-5 -280t-5 -279t-4 -268l-290 30l12 1024q-132 158 -279 332t-281 332zM458 2178q0 30 10 61t31 55t53 40t76 18q90 2 133 -49t43 -117q0 -34 -12 -67t-35 -59 t-56 -41t-77 -15q-40 0 -71 16t-52 40t-32 55t-11 63zM918 2190q0 30 10 61t31 55t53 40t76 18q90 2 133 -49t43 -117q0 -34 -12 -67t-35 -59t-56 -41t-77 -15q-40 0 -71 16t-52 40t-32 55t-11 63z" />
<glyph unicode="&#x152;" horiz-adv-x="1986" d="M140 934q2 168 47 328t129 286t208 206t286 88l1064 52l-48 -286l-794 -4q2 -148 4 -276t4 -280q54 6 113 12t118 13t115 14t104 11l-48 -298l-400 -14q2 -76 4 -145t5 -137t5 -138t4 -148q96 4 200 9t209 9t208 9t197 9l-10 -284l-1034 6q-178 4 -310 88t-217 219 t-126 305t-37 346zM406 918q-2 -108 22 -215t71 -197t116 -156t157 -92q-4 312 -7 625t-7 627q-88 -24 -154 -83t-109 -139t-66 -176t-23 -194z" />
<glyph unicode="&#x153;" horiz-adv-x="2496" d="M116 1012q0 136 30 264t93 231t163 174t240 93q28 4 57 7t61 3q126 0 227 -42t179 -116q108 110 241 167t269 57h31t29 -2q104 -12 197 -63t164 -147t114 -237t45 -331l-1044 28q-12 -100 -12 -180q0 -138 26 -252t74 -197t115 -133t151 -58q42 0 102 20t117 71t103 139 t60 224l334 -40q-38 -198 -107 -333t-162 -216t-209 -117t-250 -36q-132 -2 -233 54t-177 148q-106 -100 -254 -142q-64 -16 -118 -16q-128 0 -238 69t-195 184t-141 262t-74 303q-4 38 -6 78t-2 82zM396 933q0 -13 2 -27q6 -114 39 -226t86 -198t125 -135t158 -33 q52 8 103 41t99 87q-52 134 -73 280t-17 280q2 106 22 198t56 174q-50 60 -118 98t-148 34q-82 -4 -144 -52t-104 -124t-64 -173t-22 -199v-25zM1282 1378q70 -2 137 -2h133h116h77h64t63 -1t74 -3q-12 32 -37 68t-58 65t-73 49t-82 24q-58 2 -118 -11t-116 -39t-103 -64 t-77 -86z" />
<glyph unicode="&#x178;" horiz-adv-x="1348" d="M150 640q0 16 1 38t5 82l328 -34q-8 -52 -11 -86t-3 -52q0 -80 23 -155t65 -131t102 -86t136 -20q80 10 132 73t82 162t41 223t11 254q0 98 -5 195t-13 187q-28 -64 -64 -122t-84 -102t-108 -69t-134 -25q-28 0 -45 2t-35 6q-92 18 -157 68t-108 122t-68 160t-38 183 t-17 190t-6 183l284 4v-98q0 -22 -1 -46t-1 -52q0 -70 5 -149t25 -147t57 -115t101 -49q42 -2 77 32t62 89t47 128t33 148t19 149t6 132l362 10q4 -58 9 -115t13 -113q10 -76 22 -172t22 -205t17 -226t7 -237q0 -188 -23 -366t-84 -316t-165 -221t-266 -83q-140 0 -260 58 t-209 160t-139 244t-50 310zM420 2178q0 30 10 61t31 55t53 40t76 18q90 2 133 -49t43 -117q0 -34 -12 -67t-35 -59t-56 -41t-77 -15q-40 0 -71 16t-52 40t-32 55t-11 63zM880 2190q0 30 10 61t31 55t53 40t76 18q90 2 133 -49t43 -117q0 -34 -12 -67t-35 -59t-56 -41 t-77 -15q-40 0 -71 16t-52 40t-32 55t-11 63z" />
<glyph unicode="&#x2c6;" horiz-adv-x="788" d="M90 2166l350 336l352 -388l-262 -120l-106 158q-36 -40 -75 -87t-67 -81z" />
<glyph unicode="&#x2dc;" horiz-adv-x="1390" d="M156 2208q36 42 77 90t89 88t104 67t120 27q70 0 121 -33t96 -74t90 -77t103 -42q26 8 66 44t98 112l206 -206q-110 -100 -193 -146t-143 -56q-44 -16 -84 -5t-78 35t-74 57t-71 63t-71 51t-72 21q-32 0 -68 -26t-71 -62t-68 -73t-59 -57z" />
<glyph unicode="&#x2000;" horiz-adv-x="1290" />
<glyph unicode="&#x2001;" horiz-adv-x="2580" />
<glyph unicode="&#x2002;" horiz-adv-x="1290" />
<glyph unicode="&#x2003;" horiz-adv-x="2580" />
<glyph unicode="&#x2004;" horiz-adv-x="860" />
<glyph unicode="&#x2005;" horiz-adv-x="645" />
<glyph unicode="&#x2006;" horiz-adv-x="430" />
<glyph unicode="&#x2007;" horiz-adv-x="430" />
<glyph unicode="&#x2008;" horiz-adv-x="322" />
<glyph unicode="&#x2009;" horiz-adv-x="516" />
<glyph unicode="&#x200a;" horiz-adv-x="143" />
<glyph unicode="&#x2010;" horiz-adv-x="934" d="M104 904l716 20l10 -288l-722 14z" />
<glyph unicode="&#x2011;" horiz-adv-x="934" d="M104 904l716 20l10 -288l-722 14z" />
<glyph unicode="&#x2012;" horiz-adv-x="934" d="M104 904l716 20l10 -288l-722 14z" />
<glyph unicode="&#x2013;" horiz-adv-x="804" d="M104 904l604 18l10 -288l-610 16z" />
<glyph unicode="&#x2014;" horiz-adv-x="1106" d="M104 904l912 30l8 -286h-916z" />
<glyph unicode="&#x2018;" horiz-adv-x="646" d="M146 1584q0 186 220 360l198 -162q-154 -126 -154 -210q0 -82 144 -228l-246 -116q-162 200 -162 356z" />
<glyph unicode="&#x2019;" horiz-adv-x="646" d="M114 1388q154 126 154 208t-146 228l248 116q160 -198 160 -356q0 -188 -220 -360z" />
<glyph unicode="&#x201a;" horiz-adv-x="646" d="M130 58q154 126 154 208t-146 228l248 116q160 -198 160 -356q0 -188 -220 -360z" />
<glyph unicode="&#x201c;" horiz-adv-x="902" d="M12 1584q0 186 220 360l198 -162q-154 -126 -154 -210q0 -82 144 -228l-246 -116q-162 200 -162 356zM436 1612q0 182 220 360l198 -164q-154 -126 -154 -210q0 -80 144 -226l-246 -118q-162 204 -162 358z" />
<glyph unicode="&#x201d;" horiz-adv-x="902" d="M114 1388q154 126 154 208t-146 228l248 116q160 -198 160 -356q0 -188 -220 -360zM554 1410q154 126 154 210q0 80 -144 228l246 116q162 -202 162 -356q0 -186 -220 -360z" />
<glyph unicode="&#x201e;" horiz-adv-x="902" d="M96 48q154 126 154 210q0 80 -146 228l248 116q160 -198 160 -356q0 -188 -220 -360zM496 48q154 126 154 208t-146 228l248 116q160 -198 160 -356q0 -188 -220 -360z" />
<glyph unicode="&#x2022;" horiz-adv-x="1218" d="M112 964q0 58 41 102t115 44h6h2h-2q4 2 3 5t-3 5q-4 12 -5 24t-1 24q0 62 39 95t93 33q32 0 66 -13t64 -41q22 44 57 68t69 24q54 0 101 -45t61 -117q44 22 84 22q68 0 110 -49t42 -113q0 -34 -11 -67t-39 -65q58 -24 90 -67t32 -89t-32 -85t-96 -49q6 -18 6 -38 q0 -32 -12 -61t-32 -51t-47 -35t-57 -13q-32 0 -60 14q-16 -52 -54 -77t-82 -25q-38 0 -75 21t-59 61q-26 -18 -49 -25t-45 -7q-60 0 -101 44t-41 108q0 20 2 30q-76 0 -113 42t-37 98q0 30 15 62t39 56q-46 30 -65 70t-19 80zM256 1127q8 -1 18 -7v-10q-26 18 -18 17z M600 812q0 -16 20 -16t20 16q0 18 -20 18t-20 -18z" />
<glyph unicode="&#x2026;" horiz-adv-x="1280" d="M128 162q0 64 40 117t130 57t133 -47t43 -117q0 -34 -12 -67t-35 -59t-57 -41t-78 -15q-40 0 -70 15t-51 39t-32 55t-11 63zM530 162q0 64 40 117t130 57t133 -47t43 -117q0 -34 -12 -67t-35 -59t-57 -41t-78 -15q-40 0 -70 15t-51 39t-32 55t-11 63zM930 162 q0 64 40 117t130 57t133 -47t43 -117q0 -34 -12 -67t-35 -59t-57 -41t-78 -15q-40 0 -70 15t-51 39t-32 55t-11 63z" />
<glyph unicode="&#x202f;" horiz-adv-x="516" />
<glyph unicode="&#x2039;" horiz-adv-x="920" d="M34 230l680 412l166 -228l-286 -144q78 -24 164 -50t150 -46l-118 -256z" />
<glyph unicode="&#x203a;" horiz-adv-x="920" d="M80 384l118 256l756 -312l-680 -412l-166 230l286 142q-78 24 -164 50t-150 46z" />
<glyph unicode="&#x205f;" horiz-adv-x="645" />
<glyph unicode="&#x20ac;" horiz-adv-x="1772" d="M88 878l126 2v42h-122l-4 254l146 8q22 116 69 223t119 195t171 155t227 101h-2q28 10 63 13t69 3q88 0 176 -31t158 -92t111 -151t37 -210l-250 -70q-22 84 -51 137t-62 82t-69 40t-70 11q-18 0 -41 -2t-41 -6q-48 -8 -98 -38t-94 -76t-81 -106t-59 -126h-2 q-4 -14 -5 -17l-1 -3l-1 -4t-5 -18q170 8 353 13t345 13l10 -288l-742 -8q0 -10 1 -18t1 -18q174 6 367 14t363 14l10 -286l-698 -8q24 -76 62 -142t89 -115t117 -77t144 -28q16 0 39 2t45 6q96 18 154 70t91 123t46 156t17 171l312 -62q2 -126 -36 -248t-112 -224 t-180 -176t-238 -104q-34 -10 -66 -13t-64 -3q-126 0 -235 54t-195 145t-148 211t-98 254q-40 0 -88 -1t-76 -1z" />
<glyph unicode="&#x25fc;" horiz-adv-x="1850" d="M0 0v1850h1850v-1850h-1850z" />
</font>
</defs>
</svg>
