<?xml version="1.0" standalone="no"?>
<!DOCTYPE svg PUBLIC "-//W3C//DTD SVG 1.1//EN" "http://www.w3.org/Graphics/SVG/1.1/DTD/svg11.dtd" >
<svg xmlns="http://www.w3.org/2000/svg">
<metadata></metadata>
<defs>
<font id="avenirregular" horiz-adv-x="260" >
<font-face units-per-em="1000" ascent="800" descent="-200" />
<missing-glyph horiz-adv-x="296" />
<glyph unicode="&#xd;" horiz-adv-x="500" />
<glyph unicode=" "  horiz-adv-x="296" />
<glyph unicode="&#x09;" horiz-adv-x="296" />
<glyph unicode="&#xa0;" horiz-adv-x="296" />
<glyph unicode="!" horiz-adv-x="444" d="M297 708h-150v-474h150v474zM130 86q0 -19 7 -36t19.5 -29.5t29.5 -19.5t36 -7t36 7t29.5 19.5t19.5 29.5t7 36t-7 36t-19.5 29.5t-29.5 19.5t-36 7t-36 -7t-29.5 -19.5t-19.5 -29.5t-7 -36z" />
<glyph unicode="&#x22;" horiz-adv-x="520" d="M313 426h126v282h-126v-282zM81 426h126v282h-126v-282z" />
<glyph unicode="#" horiz-adv-x="592" d="M101 0h97l28 201h99l-28 -201h97l28 201h96v90h-84l17 126h96v90h-84l28 201h-97l-28 -201h-99l28 201h-97l-28 -201h-96v-90h84l-17 -126h-96v-90h84zM337 291h-99l17 126h99z" />
<glyph unicode="$" horiz-adv-x="592" d="M328 790h-66v-70q-44 -5 -85.5 -22t-73 -44t-50.5 -65t-19 -85q0 -76 39.5 -119.5t115.5 -67.5l73 -22v-169q-41 3 -78 16.5t-63 45.5l-106 -119q50 -45 115.5 -63t131.5 -18v-70h66v70q49 5 93 21t77 44t52 68t19 93q0 70 -39.5 115.5t-105.5 65.5l-96 28v159 q32 -2 63 -11.5t55 -30.5l96 117q-44 35 -102 49t-112 14v70zM262 439q-6 2 -18 5t-24 10.5t-21 20.5t-9 36q0 32 22 47t50 21v-140zM328 278l19 -7q13 -5 25 -10.5t21 -13t14.5 -18.5t5.5 -27q0 -17 -7.5 -29.5t-19.5 -21.5t-27.5 -14.5t-30.5 -8.5v150z" />
<glyph unicode="%" horiz-adv-x="907" d="M508 187q0 -41 15.5 -77.5t42 -63.5t62.5 -42.5t77 -15.5t77 15.5t62.5 42.5t42 63.5t15.5 77.5t-15.5 77t-42 63t-62.5 42.5t-77 15.5t-77 -15.5t-62.5 -42.5t-42 -63t-15.5 -77zM800 187q0 -41 -27.5 -69t-67.5 -28t-67.5 28t-27.5 69q0 40 27.5 68t67.5 28t67.5 -28 t27.5 -68zM5 522q0 -41 15.5 -77t42 -63t62.5 -42.5t77 -15.5t77 15.5t62.5 42.5t42 63t15.5 77t-15.5 77t-42 63t-62.5 42.5t-77 15.5t-77 -15.5t-62.5 -42.5t-42 -63t-15.5 -77zM297 522q0 -40 -27.5 -68t-67.5 -28t-67.5 28t-27.5 68t27.5 68t67.5 28t67.5 -28t27.5 -68z M210 11l76 -43l413 725l-84 47z" />
<glyph unicode="&#x26;" horiz-adv-x="759" d="M744 365h-174l-69 -94l-91 97q27 14 50.5 32.5t41.5 42t28.5 50.5t10.5 59q0 45 -17 77.5t-45.5 54t-65.5 32t-78 10.5q-42 0 -82 -10t-71 -32t-49.5 -56t-18.5 -82q0 -26 5.5 -47t16 -40t25 -36t31.5 -36q-32 -11 -59 -29.5t-47.5 -43.5t-32 -55.5t-11.5 -64.5 q0 -53 21 -93t56.5 -66.5t80.5 -39.5t93 -13q63 0 113.5 20t94.5 65l59 -67h193l-158 167zM333 606q29 0 49.5 -16.5t20.5 -47.5q0 -15 -8 -28.5t-20 -25t-26 -21t-26 -16.5q-9 8 -19.5 18t-19 21.5t-14.5 24t-6 25.5q0 30 20 48t49 18zM410 166q-25 -22 -50.5 -37 t-60.5 -15q-18 0 -35.5 6.5t-30.5 17.5t-21 27t-8 36t7 35t18.5 26.5t26 21t29.5 18.5z" />
<glyph unicode="'" horiz-adv-x="296" d="M85 426h126v282h-126v-282z" />
<glyph unicode="(" horiz-adv-x="314" d="M190 732l-2 -4q-69 -103 -106.5 -209.5t-37.5 -230.5t37.5 -230.5t106.5 -209.5l2 -4l103 60q-30 48 -54 92t-40.5 89.5t-25.5 95t-9 107.5t9 107.5t25.5 95t40.5 89.5t54 92z" />
<glyph unicode=")" horiz-adv-x="314" d="M124 -156l2 4q69 103 106.5 209.5t37.5 230.5t-37.5 230.5t-106.5 209.5l-2 4l-103 -60q30 -48 54 -92t40.5 -89.5t25.5 -95t9 -107.5t-9 -107.5t-25.5 -95t-40.5 -89.5t-54 -92z" />
<glyph unicode="*" horiz-adv-x="482" d="M293 708h-102v-138l-131 47l-32 -95l133 -46l-84 -109l81 -61l81 110l84 -115l83 61l-83 114l131 42l-30 95l-131 -43v138z" />
<glyph unicode="+" horiz-adv-x="666" d="M59 240h211v-211h126v211h211v126h-211v211h-126v-211h-211v-126z" />
<glyph unicode="," horiz-adv-x="296" d="M17 -120h128l90 282h-144z" />
<glyph unicode="-" horiz-adv-x="296" d="M271 309h-246v-120h246v120z" />
<glyph unicode="." horiz-adv-x="296" d="M56 86q0 -19 7 -36t19.5 -29.5t29.5 -19.5t36 -7t36 7t29.5 19.5t19.5 29.5t7 36t-7 36t-19.5 29.5t-29.5 19.5t-36 7t-36 -7t-29.5 -19.5t-19.5 -29.5t-7 -36z" />
<glyph unicode="/" horiz-adv-x="407" d="M-3 -18l113 -35l300 779l-114 35z" />
<glyph unicode="0" horiz-adv-x="592" d="M33 354q0 -63 11.5 -128t41 -118t80.5 -86.5t130 -33.5t130 33.5t80.5 86.5t41 118t11.5 128t-11.5 128t-41 118t-80.5 86.5t-130 33.5t-130 -33.5t-80.5 -86.5t-41 -118t-11.5 -128zM183 354q0 28 2.5 67t13.5 75t33.5 61t63.5 25q40 0 63 -25t34 -61t13.5 -75t2.5 -67 t-2.5 -67t-13.5 -75t-34 -61t-63 -25q-41 0 -63.5 25t-33.5 61t-13.5 75t-2.5 67z" />
<glyph unicode="1" horiz-adv-x="592" d="M288 0h144v708h-140l-231 -195l85 -98l142 125v-540z" />
<glyph unicode="2" horiz-adv-x="592" d="M49 0h494v132h-314l215 185q20 18 37 37t29.5 41.5t19.5 50t7 61.5q0 53 -17.5 93t-48.5 66.5t-73 40t-90 13.5q-52 0 -96.5 -13.5t-77.5 -40.5t-53 -67.5t-23 -95.5l150 -11q3 38 26.5 64t65.5 26q35 0 61 -20.5t26 -56.5q0 -32 -21 -56t-42 -43l-275 -247v-159z" />
<glyph unicode="3" horiz-adv-x="592" d="M216 299h35q25 0 50 -1.5t45 -9.5t32.5 -24.5t12.5 -46.5q0 -40 -23.5 -65.5t-72.5 -25.5q-48 0 -72.5 22t-32.5 60l-158 -37q22 -95 90.5 -139t163.5 -44q52 0 98.5 13t81 39.5t55 66.5t20.5 93q0 31 -9 59t-26 50t-41.5 37t-56.5 19v3q59 12 90 54t31 101 q0 51 -19.5 88t-52.5 61.5t-76.5 36t-90.5 11.5q-45 0 -85.5 -9.5t-73.5 -29.5t-57 -52.5t-36 -78.5l165 -34q7 28 30 47t58 19q37 0 62.5 -21t25.5 -53q0 -25 -10 -40.5t-26.5 -24t-36.5 -11.5t-41 -3h-49v-130z" />
<glyph unicode="4" horiz-adv-x="592" d="M333 0h144v142h91v126h-91v440h-164l-289 -440v-126h309v-142zM333 268h-159l157 244h2v-244z" />
<glyph unicode="5" horiz-adv-x="592" d="M517 708h-428l-8 -391q35 12 72.5 19t74.5 7q29 0 58 -5t52.5 -18.5t38 -36t14.5 -57.5q0 -46 -28.5 -76t-76.5 -30q-39 0 -65 23.5t-32 61.5l-157 -36q23 -91 85 -136t154 -45q58 0 107.5 17t85.5 49.5t56.5 79.5t20.5 107q0 54 -18 97.5t-50.5 74t-77.5 46.5t-99 16 q-40 0 -63 -8l3 109h281v132z" />
<glyph unicode="6" horiz-adv-x="592" d="M453 708h-183l-155 -242q-17 -27 -32.5 -52.5t-27 -53.5t-18.5 -59.5t-7 -69.5q0 -55 20.5 -99.5t56 -76.5t83.5 -49.5t104 -17.5q55 0 103.5 17.5t84 49.5t56 76.5t20.5 99.5q0 48 -16 90.5t-45 73.5t-70 49t-91 18q-13 0 -25 -2t-24 -5zM408 237q0 -48 -31.5 -79.5 t-82.5 -31.5t-82.5 31.5t-31.5 79.5t31.5 79.5t82.5 31.5t82.5 -31.5t31.5 -79.5z" />
<glyph unicode="7" horiz-adv-x="592" d="M97 0h175l283 576v132h-518v-138h350z" />
<glyph unicode="8" horiz-adv-x="592" d="M59 525q0 -58 31.5 -99t88.5 -58v-2q-64 -17 -98 -61.5t-34 -110.5q0 -51 20.5 -90t55 -64.5t79.5 -38.5t94 -13t94 13t79.5 38.5t55 64.5t20.5 90q0 66 -34 110.5t-98 61.5v2q57 17 88.5 58t31.5 99q0 49 -19 85.5t-51 61t-75 36.5t-92 12t-92 -12t-75.5 -36.5t-51 -61 t-18.5 -85.5zM209 504q0 32 24 55t63 23t63 -23t24 -55q0 -33 -24 -56t-63 -23t-63 23t-24 56zM197 215q0 38 27 64t72 26t72 -26t27 -64q0 -37 -27 -63t-72 -26t-72 26t-27 63z" />
<glyph unicode="9" horiz-adv-x="592" d="M139 0h183l155 242q17 27 32.5 52.5t27 53.5t18.5 59.5t7 69.5q0 55 -20.5 99.5t-56 76.5t-84 49.5t-103.5 17.5q-56 0 -104 -17.5t-83.5 -49.5t-56 -76.5t-20.5 -99.5q0 -48 16 -90.5t45 -73.5t70 -49t91 -18q13 0 25 2t24 5zM184 471q0 48 31.5 79.5t82.5 31.5 t82.5 -31.5t31.5 -79.5t-31.5 -79.5t-82.5 -31.5t-82.5 31.5t-31.5 79.5z" />
<glyph unicode=":" horiz-adv-x="296" d="M56 86q0 -19 7 -36t19.5 -29.5t29.5 -19.5t36 -7t36 7t29.5 19.5t19.5 29.5t7 36t-7 36t-19.5 29.5t-29.5 19.5t-36 7t-36 -7t-29.5 -19.5t-19.5 -29.5t-7 -36zM56 406q0 -19 7 -36t19.5 -29.5t29.5 -19.5t36 -7t36 7t29.5 19.5t19.5 29.5t7 36t-7 36t-19.5 29.5 t-29.5 19.5t-36 7t-36 -7t-29.5 -19.5t-19.5 -29.5t-7 -36z" />
<glyph unicode=";" horiz-adv-x="296" d="M17 -120h128l90 282h-144zM56 406q0 -19 7 -36t19.5 -29.5t29.5 -19.5t36 -7t36 7t29.5 19.5t19.5 29.5t7 36t-7 36t-19.5 29.5t-29.5 19.5t-36 7t-36 -7t-29.5 -19.5t-19.5 -29.5t-7 -36z" />
<glyph unicode="&#x3c;" horiz-adv-x="666" d="M586 564l-506 -198v-126l506 -198v136l-317 124v2l317 124v136z" />
<glyph unicode="=" horiz-adv-x="666" d="M59 336h548v126h-548v-126zM59 144h548v126h-548v-126z" />
<glyph unicode="&#x3e;" horiz-adv-x="666" d="M80 42l506 198v126l-506 198v-136l317 -124v-2l-317 -124v-136z" />
<glyph unicode="?" horiz-adv-x="556" d="M216 234h150v29q0 17 8 34t31 35q36 28 59.5 51.5t38 46.5t20.5 46.5t6 52.5q0 48 -18 85t-49 62t-71.5 37.5t-86.5 12.5q-105 0 -172 -55.5t-78 -161.5l154 -10q3 37 27.5 63t71.5 26q31 0 51.5 -18.5t20.5 -51.5q0 -17 -9.5 -32.5t-26.5 -33t-40.5 -37.5t-51.5 -47 q-19 -18 -27 -39t-8 -51v-44zM199 86q0 -19 7 -36t19.5 -29.5t29.5 -19.5t36 -7t36 7t29.5 19.5t19.5 29.5t7 36t-7 36t-19.5 29.5t-29.5 19.5t-36 7t-36 -7t-29.5 -19.5t-19.5 -29.5t-7 -36z" />
<glyph unicode="@" horiz-adv-x="800" d="M475 364q0 -21 -4.5 -42.5t-16.5 -39t-32.5 -28.5t-51.5 -11q-21 0 -34.5 8t-21 20.5t-10.5 28.5t-3 32q0 52 27 88t73 36q38 0 56 -26t18 -66zM605 534h-94l-8 -45h-2q-15 31 -41.5 44t-66.5 13q-47 0 -84 -18.5t-62.5 -50t-39.5 -72t-14 -84.5q0 -37 10.5 -68t29.5 -53 t45.5 -34.5t58.5 -12.5q48 0 78 17t50 37h2q1 -20 19 -37t60 -17q15 0 37.5 3.5t47 12.5t49 26t44 44t32 66t12.5 92q0 79 -30.5 140.5t-80.5 103.5t-113.5 63.5t-129.5 21.5q-79 0 -148.5 -28.5t-121.5 -78.5t-82 -118t-30 -148q0 -81 30.5 -149.5t83.5 -117.5t123.5 -76.5 t150.5 -27.5q92 0 172.5 38.5t134.5 112.5h-110q-37 -29 -84.5 -45t-104.5 -16q-63 0 -117 19.5t-93.5 55.5t-61.5 88t-22 118q0 61 20 113t56.5 90t87.5 59t113 21q57 0 105 -15.5t82.5 -46.5t54 -76.5t19.5 -105.5q0 -39 -7.5 -67t-19.5 -46.5t-27.5 -27t-31.5 -8.5 t-21.5 8.5t-5.5 19.5q0 14 3 33t6 33z" />
<glyph unicode="A" horiz-adv-x="741" d="M-1 0h172l59 150h275l61 -150h176l-308 708h-129zM452 282h-173l86 220z" />
<glyph unicode="B" horiz-adv-x="648" d="M72 0h290q47 0 94.5 10t85.5 33t62 60.5t24 93.5q0 34 -11 64t-31.5 52.5t-49 37t-63.5 19.5v2q55 17 88.5 56.5t33.5 99.5q0 58 -23 93t-60 54.5t-83.5 26t-92.5 6.5h-264v-708zM228 576h106q18 0 37 -3.5t34 -11.5t24.5 -22.5t9.5 -36.5q0 -21 -8.5 -36t-22.5 -24 t-31.5 -13t-35.5 -4h-113v151zM228 293h118q19 0 41 -3t41 -11t31.5 -23.5t12.5 -40.5q0 -23 -9.5 -39t-24.5 -26t-33.5 -14t-36.5 -4h-140v161z" />
<glyph unicode="C" horiz-adv-x="685" d="M655 622q-23 29 -52 49t-60.5 32t-64 17.5t-62.5 5.5q-83 0 -153 -26t-121 -74.5t-79.5 -117.5t-28.5 -154t28.5 -154t79.5 -117.5t121 -74.5t153 -26q73 0 142 30t114 93l-130 97q-24 -36 -61 -56t-85 -20q-42 0 -78.5 17t-63.5 47.5t-42.5 72t-15.5 91.5q0 49 15.5 91 t43 72.5t65 47.5t81.5 17t77.5 -15t56.5 -43z" />
<glyph unicode="D" horiz-adv-x="759" d="M72 0h255q79 0 151 23t127 67.5t87.5 110t32.5 151.5q0 97 -33.5 165t-90.5 110.5t-133.5 61.5t-161.5 19h-234v-708zM228 564h92q49 0 93.5 -12.5t77.5 -37.5t52.5 -63.5t19.5 -90.5q0 -60 -19.5 -101.5t-53.5 -67t-80.5 -36.5t-100.5 -11h-81v420z" />
<glyph unicode="E" horiz-adv-x="630" d="M78 0h499v144h-343v144h307v144h-307v132h325v144h-481v-708z" />
<glyph unicode="F" horiz-adv-x="593" d="M78 0h156v276h295v144h-295v144h319v144h-475v-708z" />
<glyph unicode="G" horiz-adv-x="778" d="M713 420h-277v-144h127v-115q-22 -12 -59 -23.5t-88 -11.5q-50 0 -90.5 17t-69.5 47.5t-44.5 72t-15.5 91.5q0 49 15.5 91t44.5 72.5t69.5 47.5t90.5 17q60 0 100 -17t72 -50l110 120q-54 50 -125.5 70.5t-156.5 20.5q-83 0 -153 -26t-121 -74.5t-79.5 -117.5t-28.5 -154 t28.5 -154t79.5 -117.5t121 -74.5t153 -26q78 0 153 16t144 52v370z" />
<glyph unicode="H" horiz-adv-x="759" d="M72 0h156v306h303v-306h156v708h-156v-264h-303v264h-156v-708z" />
<glyph unicode="I" horiz-adv-x="296" d="M70 0h156v708h-156v-708z" />
<glyph unicode="J" horiz-adv-x="500" d="M438 708h-156v-454q0 -20 -1.5 -43.5t-8.5 -43.5t-22 -33.5t-42 -13.5q-26 0 -46.5 18t-23.5 44l-143 -35q17 -85 75 -125t142 -40q72 0 116.5 21.5t68.5 57t32.5 81.5t8.5 95v471z" />
<glyph unicode="K" horiz-adv-x="722" d="M78 0h156v336l288 -336h218l-342 379l315 329h-204l-275 -294v294h-156v-708z" />
<glyph unicode="L" horiz-adv-x="537" d="M78 0h445v144h-289v564h-156v-708z" />
<glyph unicode="M" horiz-adv-x="944" d="M72 0h156v543h2l179 -543h119l186 543h2v-543h156v708h-235l-164 -462h-2l-163 462h-236v-708z" />
<glyph unicode="N" horiz-adv-x="815" d="M72 0h156v504h2l309 -504h204v708h-156v-492h-2l-301 492h-212v-708z" />
<glyph unicode="O" horiz-adv-x="832" d="M34 354q0 -85 28.5 -154t79.5 -117.5t121 -74.5t153 -26t153 26t121 74.5t79.5 117.5t28.5 154t-28.5 154t-79.5 117.5t-121 74.5t-153 26t-153 -26t-121 -74.5t-79.5 -117.5t-28.5 -154zM196 354q0 49 15.5 91t44.5 72.5t69.5 47.5t90.5 17t90.5 -17t69.5 -47.5 t44.5 -72.5t15.5 -91q0 -50 -15.5 -91.5t-44.5 -72t-69.5 -47.5t-90.5 -17t-90.5 17t-69.5 47.5t-44.5 72t-15.5 91.5z" />
<glyph unicode="P" horiz-adv-x="630" d="M72 0h156v276h114q56 0 104 10.5t83 35.5t55 67t20 104q0 63 -21.5 104.5t-58 66t-85.5 34.5t-104 10h-263v-708zM228 576h80q22 0 46 -2.5t43.5 -11.5t32 -25.5t12.5 -43.5q0 -25 -9.5 -41.5t-25 -26t-35 -13.5t-40.5 -4h-104v168z" />
<glyph unicode="Q" horiz-adv-x="852" d="M847 120h-198v2q36 16 63 41.5t44 57.5t25.5 68t8.5 74q0 80 -29.5 146.5t-80.5 114.5t-120 75t-148 27t-148 -26.5t-120 -74.5t-80.5 -115t-29.5 -147q0 -86 29 -153t80 -114t121.5 -71.5t153.5 -24.5h429v120zM196 363q0 46 17 86t46.5 69.5t68.5 46.5t84 17t84 -17 t68.5 -46.5t46.5 -69.5t17 -86t-17 -86t-46.5 -69.5t-68.5 -46.5t-84 -17t-84 17t-68.5 46.5t-46.5 69.5t-17 86z" />
<glyph unicode="R" horiz-adv-x="648" d="M72 0h156v283h77l148 -283h187l-180 299q75 14 114 66.5t39 127.5q0 62 -21.5 103.5t-58 66t-85 35t-102.5 10.5h-274v-708zM228 576h102q21 0 43 -3t39 -11.5t28 -24.5t11 -43q0 -29 -12.5 -45t-31.5 -23.5t-42.5 -9t-44.5 -1.5h-92v161z" />
<glyph unicode="S" horiz-adv-x="574" d="M529 652q-45 40 -101 57t-116 17q-52 0 -101 -14.5t-86.5 -43.5t-60 -72t-22.5 -100q0 -59 24.5 -95t61.5 -58t80 -35t80 -26t61.5 -31.5t24.5 -50.5q0 -19 -9.5 -33t-25 -23t-35 -13.5t-38.5 -4.5q-39 0 -75.5 17.5t-60.5 49.5l-111 -122q51 -47 110 -68t128 -21 q55 0 104.5 14t87 43t59.5 73t22 103q0 62 -24 99t-60.5 59t-78.5 34t-78.5 24t-60.5 29t-24 49q0 20 10 34t26 22.5t34 12.5t35 4q29 0 61.5 -11.5t51.5 -35.5z" />
<glyph unicode="T" horiz-adv-x="574" d="M209 0h156v570h202v138h-560v-138h202v-570z" />
<glyph unicode="U" horiz-adv-x="741" d="M669 708h-156v-429q0 -33 -10.5 -61t-29.5 -48.5t-45 -32t-57 -11.5t-57.5 11.5t-45.5 32t-29.5 48.5t-10.5 61v429h-156v-435q0 -63 19 -116t56.5 -92t93.5 -61t130 -22q73 0 129 22t93.5 61t56.5 92t19 116v435z" />
<glyph unicode="V" horiz-adv-x="704" d="M285 0h125l292 708h-167l-178 -464h-2l-175 464h-178z" />
<glyph unicode="W" horiz-adv-x="1000" d="M208 0h134l156 490h2l156 -490h139l207 708h-158l-119 -466h-2l-147 466h-145l-148 -454h-2l-113 454h-170z" />
<glyph unicode="X" horiz-adv-x="722" d="M0 0h185l168 285l173 -285h196l-256 373l229 335h-189l-145 -248l-151 248h-196l234 -338z" />
<glyph unicode="Y" horiz-adv-x="648" d="M246 0h156v302l266 406h-185l-159 -265l-150 265h-194l266 -406v-302z" />
<glyph unicode="Z" horiz-adv-x="630" d="M35 0h560v144h-364l352 426v138h-535v-138h346l-359 -426v-144z" />
<glyph unicode="[" horiz-adv-x="296" d="M276 732h-210v-888h210v90h-90v708h90v90z" />
<glyph unicode="\" horiz-adv-x="407" d="M410 -18l-299 779l-114 -35l300 -779z" />
<glyph unicode="]" horiz-adv-x="296" d="M20 -156h210v888h-210v-90h90v-708h-90v-90z" />
<glyph unicode="^" horiz-adv-x="666" d="M80 343h141l112 238l111 -238h142l-180 365h-146z" />
<glyph unicode="_" horiz-adv-x="500" d="M500 -125v50h-500v-50h500z" />
<glyph unicode="`" d="M131 708h-204l173 -144h132z" />
<glyph unicode="a" horiz-adv-x="537" d="M358 0h138v247q0 61 -10 107.5t-35.5 78.5t-68 48.5t-108.5 16.5q-60 0 -116 -19.5t-98 -58.5l80 -82q24 27 54.5 42.5t67.5 15.5q39 0 67.5 -23.5t28.5 -63.5q-31 0 -67.5 -1t-73 -6t-70.5 -15.5t-60.5 -29.5t-42 -48t-15.5 -71q0 -37 14 -65t38 -47t55.5 -28.5 t65.5 -9.5q46 0 87.5 17t66.5 56h2v-61zM358 213v-32q0 -23 -9.5 -40t-25.5 -28t-36.5 -17t-42.5 -6q-25 0 -48 13t-23 40q0 25 16.5 39t40 21t49 8.5t42.5 1.5h37z" />
<glyph unicode="b" horiz-adv-x="630" d="M67 0h138v64h2q9 -13 23.5 -26.5t34 -24.5t42.5 -18t49 -7q54 0 98 18.5t75.5 52t48.5 79.5t17 101q0 51 -15.5 97.5t-44 82.5t-69.5 57.5t-93 21.5q-47 0 -87.5 -14.5t-66.5 -49.5h-2v322h-150v-756zM205 243q0 55 31.5 89t88.5 34t88.5 -34t31.5 -89t-31.5 -89 t-88.5 -34t-88.5 34t-31.5 89z" />
<glyph unicode="c" horiz-adv-x="482" d="M481 433q-35 36 -82.5 50.5t-90.5 14.5q-56 0 -105.5 -18t-86 -51.5t-57.5 -80.5t-21 -105t21 -105t57.5 -80.5t86 -51.5t105.5 -18q43 0 90.5 14.5t82.5 50.5l-99 104q-13 -15 -31 -26t-43 -11q-57 0 -88.5 34t-31.5 89t31.5 89t88.5 34q23 0 43 -10.5t31 -26.5z" />
<glyph unicode="d" horiz-adv-x="630" d="M563 756h-150v-322h-2q-26 35 -66.5 49.5t-87.5 14.5q-52 0 -93 -21.5t-69.5 -57.5t-44 -82.5t-15.5 -97.5q0 -55 17 -101t48.5 -79.5t75.5 -52t98 -18.5q25 0 48.5 7t43 18t34 24.5t23.5 26.5h2v-64h138v756zM425 243q0 -55 -31.5 -89t-88.5 -34t-88.5 34t-31.5 89 t31.5 89t88.5 34t88.5 -34t31.5 -89z" />
<glyph unicode="e" horiz-adv-x="574" d="M408 161q-19 -26 -44.5 -42.5t-62.5 -16.5q-44 0 -74 25.5t-39 68.5h348v47q0 58 -16 105t-45.5 80.5t-72 51.5t-94.5 18q-56 0 -105.5 -18t-86 -51.5t-57.5 -80.5t-21 -105t21 -105t57.5 -80.5t86 -51.5t105.5 -18q59 0 114 25t91 71zM188 298q1 18 8.5 34.5t21 29 t32.5 20.5t44 8q41 0 67 -27t25 -65h-198z" />
<glyph unicode="f" horiz-adv-x="370" d="M105 0h150v366h111v120h-111v77q0 48 18 63.5t54 15.5q14 0 25 -2.5t24 -7.5l7 127q-21 5 -43 7t-45 2q-61 0 -98.5 -15.5t-57.5 -42.5t-27 -62.5t-7 -75.5v-86h-99v-120h99v-366z" />
<glyph unicode="g" horiz-adv-x="630" d="M563 486h-138v-64h-2q-9 13 -24 26.5t-36 24.5t-47.5 18t-58.5 7q-52 0 -93 -21.5t-69.5 -56.5t-44 -81t-15.5 -94q0 -55 17 -101t48.5 -79.5t75.5 -52t98 -18.5q34 0 72.5 14.5t64.5 49.5h2v-47q0 -52 -32.5 -85.5t-101.5 -33.5q-46 0 -84.5 17t-73.5 46l-83 -124 q53 -42 116 -56.5t128 -14.5q142 0 211.5 71.5t69.5 209.5v445zM185 246q0 24 9 45.5t25.5 38t38 26.5t47.5 10q25 0 47 -10t38.5 -26.5t25.5 -38t9 -45.5t-9 -45.5t-25.5 -38t-38.5 -26.5t-47 -10q-26 0 -47.5 10t-38 26.5t-25.5 38t-9 45.5z" />
<glyph unicode="h" horiz-adv-x="574" d="M53 756v-756h150v242q0 24 3 46t12.5 39.5t27.5 28t47 10.5t44.5 -12t23 -31t9 -41.5t1.5 -43.5v-238h150v268q0 49 -7 91t-26.5 73t-54.5 48.5t-92 17.5q-27 0 -50 -7t-40 -18t-29 -25t-17 -28h-2v336h-150z" />
<glyph unicode="i" d="M55 0h150v486h-150v-486zM43 639q0 -36 25.5 -61.5t61.5 -25.5t61.5 25.5t25.5 61.5t-25.5 61.5t-61.5 25.5t-61.5 -25.5t-25.5 -61.5z" />
<glyph unicode="j" d="M205 486h-150v-496q0 -14 -1 -31t-6 -32t-16 -25t-30 -10q-21 0 -39 9l-8 -133q17 -5 35 -6.5t35 -1.5q51 0 85.5 14.5t55.5 41t30 64t9 84.5v522zM43 639q0 -36 25.5 -61.5t61.5 -25.5t61.5 25.5t25.5 61.5t-25.5 61.5t-61.5 25.5t-61.5 -25.5t-25.5 -61.5z" />
<glyph unicode="k" horiz-adv-x="556" d="M53 0h150v246h2l164 -246h189l-198 267l193 219h-184l-166 -192v462h-150v-756z" />
<glyph unicode="l" d="M55 0h150v756h-150v-756z" />
<glyph unicode="m" horiz-adv-x="870" d="M53 0h150v242q0 24 3 46t12.5 39.5t27.5 28t47 10.5q26 0 39.5 -12t19.5 -29t7 -36t1 -32v-257h150v257q0 22 4.5 42t15 35t28 23.5t43.5 8.5q37 0 51.5 -24.5t14.5 -58.5v-283h150v287q0 44 -8.5 82.5t-28 67t-53 45t-82.5 16.5q-54 0 -91 -20t-63 -67q-20 45 -59.5 66 t-90.5 21q-27 0 -50 -7t-41 -18t-31 -25t-20 -28h-2v66h-144v-486z" />
<glyph unicode="n" horiz-adv-x="574" d="M53 0h150v242q0 24 3 46t12.5 39.5t27.5 28t47 10.5t44.5 -12t23 -31t9 -41.5t1.5 -43.5v-238h150v268q0 49 -7 91t-26.5 73t-54.5 48.5t-92 17.5q-27 0 -50 -7t-41 -18t-31 -25t-20 -28h-2v66h-144v-486z" />
<glyph unicode="o" horiz-adv-x="610" d="M35 243q0 -58 21 -105t57.5 -80.5t86 -51.5t105.5 -18t105.5 18t86 51.5t57.5 80.5t21 105t-21 105t-57.5 80.5t-86 51.5t-105.5 18t-105.5 -18t-86 -51.5t-57.5 -80.5t-21 -105zM185 243q0 55 31.5 89t88.5 34t88.5 -34t31.5 -89t-31.5 -89t-88.5 -34t-88.5 34t-31.5 89 z" />
<glyph unicode="p" horiz-adv-x="630" d="M67 -228h150v280h2q26 -35 66.5 -49.5t87.5 -14.5q52 0 93 21.5t69.5 57.5t44 82.5t15.5 97.5q0 55 -17 101t-48.5 79.5t-75.5 52t-98 18.5q-26 0 -49 -7t-42.5 -18t-34 -24.5t-23.5 -26.5h-2v64h-138v-714zM205 243q0 55 31.5 89t88.5 34t88.5 -34t31.5 -89t-31.5 -89 t-88.5 -34t-88.5 34t-31.5 89z" />
<glyph unicode="q" horiz-adv-x="630" d="M563 486h-138v-64h-2q-9 13 -23.5 26.5t-34 24.5t-43 18t-48.5 7q-54 0 -98 -18.5t-75.5 -52t-48.5 -79.5t-17 -101q0 -51 15.5 -97.5t44 -82.5t69.5 -57.5t93 -21.5q47 0 87.5 14.5t66.5 49.5h2v-280h150v714zM425 243q0 -55 -31.5 -89t-88.5 -34t-88.5 34t-31.5 89 t31.5 89t88.5 34t88.5 -34t31.5 -89z" />
<glyph unicode="r" horiz-adv-x="407" d="M53 0h150v203q0 36 4 66t17.5 51.5t38.5 33.5t68 12q17 0 32.5 -2.5t31.5 -7.5v137q-11 3 -24 4t-26 1q-50 0 -83 -22.5t-57 -67.5h-2v78h-150v-486z" />
<glyph unicode="s" horiz-adv-x="463" d="M420 434q-34 36 -83 50t-97 14q-38 0 -75 -9.5t-65.5 -29.5t-46 -51t-17.5 -74q0 -46 18.5 -73.5t47 -42.5t61 -22.5t61 -14t47 -16t18.5 -28.5q0 -20 -21 -27.5t-47 -7.5q-34 0 -59.5 13.5t-46.5 39.5l-91 -101q36 -37 88 -51.5t103 -14.5q39 0 79 7.5t72 26t52.5 49 t20.5 77.5q0 46 -18.5 73.5t-47 43.5t-61 23.5t-61 14t-47 15t-18.5 26.5q0 22 18 31t37 9q54 0 87 -41z" />
<glyph unicode="t" horiz-adv-x="407" d="M384 486h-132v144h-150v-144h-96v-120h96v-231q0 -40 13.5 -68t37.5 -45.5t56 -25.5t70 -8q26 0 53 3t52 12v125q-10 -9 -29.5 -11.5t-31.5 -2.5q-24 0 -38.5 6.5t-21.5 18.5t-9 28.5t-2 36.5v162h132v120z" />
<glyph unicode="u" horiz-adv-x="574" d="M521 486h-150v-242q0 -24 -3 -46t-12.5 -39.5t-27.5 -28t-47 -10.5t-44.5 12t-23 31t-9 41.5t-1.5 43.5v238h-150v-268q0 -49 6.5 -91t26 -73t55 -48.5t92.5 -17.5q27 0 50 7t41 18t30.5 25t20.5 28h2v-66h144v486z" />
<glyph unicode="v" horiz-adv-x="556" d="M203 0h159l192 486h-151l-114 -330h-2l-123 330h-162z" />
<glyph unicode="w" horiz-adv-x="833" d="M173 0h151l90 323h2l101 -323h148l173 486h-152l-91 -305h-2l-90 305h-164l-83 -305h-2l-99 305h-160z" />
<glyph unicode="x" horiz-adv-x="556" d="M-8 0h175l114 162l106 -162h177l-187 260l158 226h-167l-83 -132l-86 132h-177l162 -226z" />
<glyph unicode="y" horiz-adv-x="556" d="M553 486h-154l-107 -321h-2l-125 321h-162l213 -490l-11 -28q-8 -20 -15 -35t-17.5 -25.5t-26.5 -16t-41 -5.5q-36 0 -70 15l-20 -123q54 -18 112 -18q54 0 87 10.5t54.5 31t35.5 50.5t29 69z" />
<glyph unicode="z" horiz-adv-x="500" d="M34 0h432v120h-270l264 222v144h-420v-120h246l-252 -216v-150z" />
<glyph unicode="{" horiz-adv-x="370" d="M356 -42h-49q-23 0 -36 6t-19.5 15.5t-8 21t-1.5 21.5v162q0 35 -10 55t-24.5 30.5t-32 13.5t-33.5 4v2q16 1 33.5 4.5t32 14t24.5 30.5t10 55v161q0 10 1.5 21.5t8 21t19.5 15.5t36 6h49v114h-105q-28 0 -51.5 -8t-41 -25.5t-27 -45t-9.5 -66.5v-173q0 -23 -13.5 -37 t-31.5 -21t-36 -9t-27 -2v-114q9 0 27 -2t36 -9t31.5 -21t13.5 -37v-172q0 -39 10 -66.5t27.5 -45.5t41 -26t50.5 -8h105v114z" />
<glyph unicode="|" horiz-adv-x="222" d="M48 750v-1000h126v1000h-126z" />
<glyph unicode="}" horiz-adv-x="370" d="M14 618h49q23 0 36 -6t19.5 -15.5t8 -21t1.5 -21.5v-162q0 -35 10 -55t24.5 -30.5t32 -13.5t33.5 -4v-2q-16 -2 -33.5 -5t-32 -13.5t-24.5 -30.5t-10 -55v-161q0 -10 -1.5 -21.5t-8 -21t-19.5 -15.5t-36 -6h-49v-114h105q28 0 51.5 8t40.5 25.5t27 45t10 66.5v173 q0 23 13 37t30.5 21t35.5 9t29 2v114q-11 0 -29 2t-35.5 9t-30.5 21t-13 37v172q0 39 -10 66.5t-27.5 45.5t-40.5 26t-48 8h-108v-114z" />
<glyph unicode="~" horiz-adv-x="666" d="M528 400l-18 -24t-19.5 -21.5t-23 -16t-27.5 -6.5q-20 0 -47 12t-55 24q-29 13 -57 22.5t-54 9.5q-25 0 -44.5 -7.5t-34.5 -19.5t-26.5 -27.5t-19.5 -31.5l36 -108l18 24t19.5 21.5t23 16t27.5 6.5q20 0 47 -12t55 -24q29 -13 57 -22.5t54 -9.5q25 0 44.5 7.5t34.5 19.5 t26.5 27.5t19.5 31.5z" />
<glyph unicode="&#xa1;" horiz-adv-x="444" d="M147 -222h150v474h-150v-474zM314 400q0 19 -7 36t-19.5 29.5t-29.5 19.5t-36 7t-36 -7t-29.5 -19.5t-19.5 -29.5t-7 -36t7 -36t19.5 -29.5t29.5 -19.5t36 -7t36 7t29.5 19.5t19.5 29.5t7 36z" />
<glyph unicode="&#xa2;" horiz-adv-x="592" d="M310 -81h60v69q17 0 39.5 3t46 10t46.5 19t42 30l-91 107q-16 -15 -28.5 -24t-23 -13t-18 -5t-13.5 -1v258q17 0 36.5 -9t39.5 -29l96 102q-39 33 -80 47.5t-92 14.5v66h-60v-66q-53 -6 -96.5 -27t-74 -54t-47 -77t-16.5 -97q0 -52 16.5 -97t47 -79t74 -55t96.5 -24v-69z M310 114q-47 14 -68.5 49t-21.5 81q0 47 21.5 83t68.5 45v-258z" />
<glyph unicode="&#xa3;" horiz-adv-x="592" d="M48 0h499v114h-253v198h156v102h-156v49q0 23 5.5 45.5t19 40t36 28.5t55.5 11q20 0 45.5 -11.5t45.5 -31.5l100 107q-42 38 -97 53t-112 15q-61 0 -107 -20t-77.5 -53t-47.5 -75t-16 -87v-71h-96v-102h96v-198h-96v-114z" />
<glyph unicode="&#xa4;" horiz-adv-x="592" d="M36 153l60 -59l49 48q32 -23 70 -35.5t81 -12.5t81 12.5t70 35.5l49 -48l60 59l-49 49q49 67 49 152t-49 152l49 49l-60 59l-49 -48q-32 23 -70 35.5t-81 12.5t-81 -12.5t-70 -35.5l-49 48l-60 -59l49 -49q-23 -32 -36 -70.5t-13 -81.5t13 -81.5t36 -70.5zM168 354 q0 28 10 52.5t27.5 42.5t40.5 28.5t50 10.5t50 -10.5t40.5 -28.5t27.5 -42.5t10 -52.5t-10 -52.5t-27.5 -42.5t-40.5 -28.5t-50 -10.5t-50 10.5t-40.5 28.5t-27.5 42.5t-10 52.5z" />
<glyph unicode="&#xa5;" horiz-adv-x="592" d="M218 0h156v158h169v96h-169v48l12 20h157v96h-100l185 290h-182l-150 -264l-150 264h-182l185 -290h-100v-96h157l12 -20v-48h-169v-96h169v-158z" />
<glyph unicode="&#xa6;" horiz-adv-x="222" d="M48 675v-350h126v350h-126zM48 175v-350h126v350h-126z" />
<glyph unicode="&#xa7;" horiz-adv-x="592" d="M517 617q-15 31 -40 52t-55.5 34t-63.5 18t-65 5q-38 0 -76 -10t-69 -31t-50.5 -53t-19.5 -76q0 -36 17 -65.5t46 -49.5q-42 -26 -64.5 -61.5t-22.5 -86.5q0 -48 22.5 -80.5t55.5 -55t72.5 -37.5t72.5 -29.5t55.5 -30t22.5 -39.5q0 -15 -8 -25t-20 -16t-26 -8.5t-26 -2.5 q-17 0 -34.5 4t-32.5 12.5t-26.5 21.5t-15.5 31l-128 -63q17 -36 41.5 -60t54.5 -39t65 -21t72 -6q40 0 83.5 10t79.5 32t59.5 57t23.5 84q0 35 -14.5 66.5t-40.5 52.5q36 18 60 53t24 77q0 45 -23 76.5t-58 53.5t-75 37.5t-75 30.5t-58 32t-23 42q0 27 20.5 40t44.5 13 q30 0 55.5 -16t36.5 -45zM272 239q-14 6 -28 13t-25.5 16.5t-19 22t-7.5 30.5q0 39 35 59l116 -55q11 -5 22.5 -11.5t21 -15t15.5 -20t6 -25.5q0 -41 -34 -61z" />
<glyph unicode="&#xa8;" d="M25 558q37 0 61 25t24 61t-26 59t-61 23q-17 0 -31.5 -7t-25.5 -18t-17.5 -26t-6.5 -31q0 -17 6.5 -32.5t17.5 -27.5t26 -19t33 -7zM233 558q37 0 61 25t24 61t-26 59t-61 23q-17 0 -31.5 -7t-25.5 -18t-17.5 -26t-6.5 -31q0 -17 6.5 -32.5t17.5 -27.5t26 -19t33 -7z" />
<glyph unicode="&#xa9;" horiz-adv-x="800" d="M494 300q-2 -37 -25 -52t-55 -15q-44 0 -69.5 35t-25.5 91q0 54 24 86t73 32q27 0 49 -13t29 -45h94q-6 37 -22 65t-40 46.5t-54 27.5t-64 9q-48 0 -85 -15.5t-61.5 -43.5t-37.5 -66.5t-13 -84.5q0 -45 13.5 -84t39 -68t62.5 -45.5t84 -16.5q33 0 62.5 10t53.5 30 t40.5 49t21.5 68h-94zM28 354q0 -77 29.5 -144.5t80 -118t118 -80t144.5 -29.5t144.5 29.5t118 80t80 118t29.5 144.5t-29.5 144.5t-80 118t-118 80t-144.5 29.5t-144.5 -29.5t-118 -80t-80 -118t-29.5 -144.5zM130 354q0 58 21 109.5t58 89.5t86 60.5t105 22.5t105 -22.5 t86 -60.5t58 -89.5t21 -109.5t-21 -109.5t-58 -89.5t-86 -60.5t-105 -22.5t-105 22.5t-86 60.5t-58 89.5t-21 109.5z" />
<glyph unicode="&#xaa;" horiz-adv-x="349" d="M230 431h96v148q0 35 -6.5 62.5t-23 46t-44 28.5t-70.5 10q-38 0 -75 -12t-64 -35l52 -49q16 16 35.5 26t43.5 10q26 0 41 -14.5t15 -32.5q-28 0 -64 -2t-67.5 -12.5t-53.5 -31.5t-22 -59q0 -22 9 -38.5t24.5 -28t36 -17t42.5 -5.5q30 0 56 10t37 33h2v-37zM236 540 q0 -17 -19.5 -33t-48.5 -16q-16 0 -29.5 5t-13.5 22q0 14 10.5 22.5t25 12.5t30.5 5t27 1h18v-19z" />
<glyph unicode="&#xab;" horiz-adv-x="538" d="M268 422l-91 61l-159 -234l159 -234l91 61l-116 173zM510 422l-91 61l-159 -234l159 -234l91 61l-116 173z" />
<glyph unicode="&#xac;" horiz-adv-x="666" d="M481 142h126v320h-548v-126h422v-194z" />
<glyph unicode="&#xae;" horiz-adv-x="800" d="M257 163h102v150h17l89 -150h105l-100 155q17 2 33.5 8.5t29 19t20.5 32t8 49.5q0 47 -20 72.5t-47 37.5t-55 14t-44 2h-138v-390zM358 475h41q9 0 19.5 -1t19.5 -5t15 -12.5t6 -23.5t-6 -23.5t-15 -12.5t-19.5 -5t-19.5 -1h-41v84zM28 354q0 -77 29.5 -144.5t80 -118 t118 -80t144.5 -29.5t144.5 29.5t118 80t80 118t29.5 144.5t-29.5 144.5t-80 118t-118 80t-144.5 29.5t-144.5 -29.5t-118 -80t-80 -118t-29.5 -144.5zM130 354q0 58 21 109.5t58 89.5t86 60.5t105 22.5t105 -22.5t86 -60.5t58 -89.5t21 -109.5t-21 -109.5t-58 -89.5 t-86 -60.5t-105 -22.5t-105 22.5t-86 60.5t-58 89.5t-21 109.5z" />
<glyph unicode="&#xaf;" d="M300 687h-340v-96h340v96z" />
<glyph unicode="&#xb0;" horiz-adv-x="400" d="M200 460q-37 0 -62.5 25.5t-25.5 62.5t25.5 62.5t62.5 25.5t62.5 -25.5t25.5 -62.5t-25.5 -62.5t-62.5 -25.5zM200 376q36 0 67 13.5t54.5 37t37 54.5t13.5 67t-13.5 67t-37 54.5t-54.5 37t-67 13.5t-67 -13.5t-54.5 -37t-37 -54.5t-13.5 -67t13.5 -67t37 -54.5t54.5 -37 t67 -13.5z" />
<glyph unicode="&#xb1;" horiz-adv-x="666" d="M59 323h211v-128h126v128h211v126h-211v128h-126v-128h-211v-126zM59 29h548v126h-548v-126z" />
<glyph unicode="&#xb2;" horiz-adv-x="385" d="M24 289h337v84h-201v2l140 108q15 11 26 21t19 23t12 30t4 43q0 29 -12 51.5t-34 37.5t-51.5 23t-64.5 8q-72 0 -120 -33.5t-53 -104.5l102 -6q2 23 19.5 38.5t46.5 15.5q23 0 41 -9t18 -30q0 -15 -14.5 -29t-28.5 -26l-186 -158v-89z" />
<glyph unicode="&#xb3;" horiz-adv-x="385" d="M143 468h25q17 0 33.5 -1t29.5 -5.5t21 -14t8 -26.5q0 -26 -19.5 -37t-48.5 -11t-45 13.5t-21 36.5l-109 -22q15 -64 62 -91t113 -27q36 0 68 8t56 24t38 40t14 56q0 37 -24 66t-68 34v2q41 7 62 32.5t21 60.5q0 29 -13.5 50.5t-36 35.5t-52.5 21t-62 7q-62 0 -109.5 -25 t-64.5 -89l110 -20q5 21 22.5 32.5t41.5 11.5q26 0 41 -8.5t15 -24.5q0 -14 -6 -23t-16.5 -14t-24 -6.5t-27.5 -1.5h-34v-84z" />
<glyph unicode="&#xb4;" d="M30 564h132l173 144h-204z" />
<glyph unicode="&#xb5;" horiz-adv-x="574" d="M521 486h-150v-242q0 -24 -3 -46t-12.5 -39.5t-27.5 -28t-47 -10.5t-44.5 12t-23 31t-9 41.5t-1.5 43.5v238h-150v-714h150v219q13 -3 30 -3q27 0 50 7t41 18t30.5 25t20.5 28h2v-66h144v486z" />
<glyph unicode="&#xb6;" horiz-adv-x="620" d="M236 -133h108v745h109v-745h108v841h-302q-52 0 -97 -7.5t-78 -27.5t-52 -54.5t-19 -88.5q0 -81 57 -126t166 -45v-492z" />
<glyph unicode="&#xb7;" horiz-adv-x="296" d="M56 283q0 -19 7 -36t19.5 -29.5t29.5 -19.5t36 -7t36 7t29.5 19.5t19.5 29.5t7 36t-7 36t-19.5 29.5t-29.5 19.5t-36 7t-36 -7t-29.5 -19.5t-19.5 -29.5t-7 -36z" />
<glyph unicode="&#xb8;" d="M168 0h-67l-62 -93l32 -29q19 8 36 8q15 0 32.5 -8t17.5 -26q0 -10 -6 -16t-15.5 -9.5t-21 -5t-23.5 -1.5q-26 0 -45.5 6t-31.5 11l-25 -47q26 -13 60.5 -21.5t64.5 -8.5q19 0 43 5t45.5 16t36 30t14.5 46q0 28 -11.5 44.5t-29.5 25t-40.5 11t-44.5 2.5z" />
<glyph unicode="&#xb9;" horiz-adv-x="385" d="M183 289h108v425h-96l-159 -117l58 -66l89 75v-317z" />
<glyph unicode="&#xba;" horiz-adv-x="397" d="M23 575q0 -36 13.5 -63.5t37 -47t55.5 -29.5t69 -10t69 10t56 29.5t37.5 47t13.5 63.5q0 34 -13.5 62t-37.5 47.5t-56 30.5t-69 11t-69 -11t-55.5 -30.5t-37 -47.5t-13.5 -62zM125 575q0 28 19.5 47.5t53.5 19.5t54 -19.5t20 -47.5q0 -27 -20 -46.5t-54 -19.5t-53 19.5 t-20 46.5z" />
<glyph unicode="&#xbb;" horiz-adv-x="538" d="M270 76l91 -61l159 234l-159 234l-91 -61l116 -173zM28 76l91 -61l159 234l-159 234l-91 -61l116 -173z" />
<glyph unicode="&#xbc;" horiz-adv-x="889" d="M716 0h108v85h57v84h-57v256h-118l-199 -262v-78h209v-85zM716 169h-101l99 136h2v-136zM155 289h108v425h-96l-159 -117l58 -66l89 75v-317zM189 11l76 -43l413 725l-84 47z" />
<glyph unicode="&#xbd;" horiz-adv-x="889" d="M155 289h108v425h-96l-159 -117l58 -66l89 75v-317zM544 0h337v84h-201v2l140 108q15 11 26 21t19 23t12 30t4 43q0 29 -12 51.5t-34 37.5t-51.5 23t-64.5 8q-72 0 -120 -33.5t-53 -104.5l102 -6q2 23 19.5 38.5t46.5 15.5q23 0 41 -9t18 -30q0 -15 -14.5 -29t-28.5 -26 l-186 -158v-89zM189 11l76 -43l413 725l-84 47z" />
<glyph unicode="&#xbe;" horiz-adv-x="889" d="M130 468h25q17 0 33.5 -1t29.5 -5.5t21 -14t8 -26.5q0 -26 -19.5 -37t-48.5 -11t-45 13.5t-21 36.5l-109 -22q15 -64 62 -91t113 -27q36 0 68 8t56 24t38 40t14 56q0 37 -24 66t-68 34v2q41 7 62 32.5t21 60.5q0 29 -13.5 50.5t-36 35.5t-52.5 21t-62 7q-31 0 -59 -6 t-50.5 -19.5t-39 -35t-24.5 -53.5l109 -20q5 21 22.5 32.5t41.5 11.5q26 0 41 -8.5t15 -24.5q0 -14 -6 -23t-16.5 -14t-24 -6.5t-27.5 -1.5h-34v-84zM720 0h108v85h57v84h-57v256h-118l-199 -262v-78h209v-85zM720 169h-101l99 136h2v-136zM213 11l76 -43l413 725l-84 47z " />
<glyph unicode="&#xbf;" horiz-adv-x="556" d="M340 252h-150v-29q0 -17 -8 -34t-31 -35q-36 -28 -59.5 -51.5t-38 -46.5t-20.5 -47t-6 -52q0 -48 18 -85t48.5 -62t71.5 -37.5t87 -12.5q105 0 172 55.5t78 161.5l-154 10q-3 -37 -27.5 -63t-71.5 -26q-31 0 -51.5 18.5t-20.5 51.5q0 17 9.5 32.5t26.5 33t40.5 37.5 t51.5 47q19 18 27 39t8 51v44zM357 400q0 19 -7 36t-19.5 29.5t-29.5 19.5t-36 7t-36 -7t-29.5 -19.5t-19.5 -29.5t-7 -36t7 -36t19.5 -29.5t29.5 -19.5t36 -7t36 7t29.5 19.5t19.5 29.5t7 36z" />
<glyph unicode="&#xc0;" horiz-adv-x="741" d="M-1 0h172l59 150h275l61 -150h176l-308 708h-129zM452 282h-173l86 220zM372 903h-204l173 -144h132z" />
<glyph unicode="&#xc1;" horiz-adv-x="741" d="M-1 0h172l59 150h275l61 -150h176l-308 708h-129zM452 282h-173l86 220zM271 759h132l173 144h-204z" />
<glyph unicode="&#xc2;" horiz-adv-x="741" d="M-1 0h172l59 150h275l61 -150h176l-308 708h-129zM452 282h-173l86 220zM570 759l-116 144h-163l-119 -144h135l62 78l63 -78h138z" />
<glyph unicode="&#xc3;" horiz-adv-x="741" d="M-1 0h172l59 150h275l61 -150h176l-308 708h-129zM452 282h-173l86 220zM254 765q5 14 15 28t27 14q15 0 30.5 -6.5t32.5 -14.5t36.5 -14.5t41.5 -6.5q31 0 53.5 11t38 29.5t24.5 43.5t14 54h-78q-7 -15 -17 -25.5t-27 -10.5q-15 0 -28.5 5t-27.5 10q-22 9 -42 15t-45 6 q-28 0 -50 -12t-37.5 -31.5t-25.5 -44.5t-14 -50h79z" />
<glyph unicode="&#xc4;" horiz-adv-x="741" d="M-1 0h172l59 150h275l61 -150h176l-308 708h-129zM452 282h-173l86 220zM266 753q37 0 61 25t24 61t-26 59t-61 23q-17 0 -31.5 -7t-25.5 -18t-17.5 -26t-6.5 -31q0 -17 6.5 -32.5t17.5 -27.5t26 -19t33 -7zM474 753q37 0 61 25t24 61t-26 59t-61 23q-17 0 -31.5 -7 t-25.5 -18t-17.5 -26t-6.5 -31q0 -17 6.5 -32.5t17.5 -27.5t26 -19t33 -7z" />
<glyph unicode="&#xc5;" horiz-adv-x="741" d="M-1 0h172l59 150h275l61 -150h176l-308 708h-129zM452 282h-173l86 220zM371 731q23 0 43 9t35 24t24 35t9 43t-9 43t-24 35t-35 24t-43 9t-43 -9t-35 -24t-24 -35t-9 -43t9 -43t24 -35t35 -24t43 -9zM320 842q0 21 15 36t36 15t36 -15t15 -36t-15 -36t-36 -15t-36 15 t-15 36z" />
<glyph unicode="&#xc6;" horiz-adv-x="1037" d="M534 0h450v144h-294v144h258v144h-258v132h282v144h-538l-449 -708h191l95 150h263v-150zM534 282h-196l179 282h17v-282z" />
<glyph unicode="&#xc7;" horiz-adv-x="685" d="M655 622q-23 29 -52 49t-60.5 32t-64 17.5t-62.5 5.5q-83 0 -153 -26t-121 -74.5t-79.5 -117.5t-28.5 -154q0 -74 22 -136t61.5 -109t94.5 -77.5t122 -42.5l-54 -82l32 -29q19 8 36 8q15 0 32.5 -8t17.5 -26q0 -10 -6 -16t-15.5 -9.5t-21 -5t-23.5 -1.5q-26 0 -45.5 6 t-31.5 11l-25 -47q26 -13 60.5 -21.5t64.5 -8.5q19 0 43 5t45.5 16t36 30t14.5 46q0 28 -11.5 44.5t-29.5 25t-40.5 11t-44.5 2.5l29 43q5 -1 9 -1h10q73 0 142 30t114 93l-130 97q-24 -36 -61 -56t-85 -20q-42 0 -78.5 17t-63.5 47.5t-42.5 72t-15.5 91.5q0 49 15.5 91 t43 72.5t65 47.5t81.5 17t77.5 -15t56.5 -43z" />
<glyph unicode="&#xc8;" horiz-adv-x="630" d="M78 0h499v144h-343v144h307v144h-307v132h325v144h-481v-708zM316 903h-204l173 -144h132z" />
<glyph unicode="&#xc9;" horiz-adv-x="630" d="M78 0h499v144h-343v144h307v144h-307v132h325v144h-481v-708zM215 759h132l173 144h-204z" />
<glyph unicode="&#xca;" horiz-adv-x="630" d="M78 0h499v144h-343v144h307v144h-307v132h325v144h-481v-708zM514 759l-116 144h-163l-119 -144h135l62 78l63 -78h138z" />
<glyph unicode="&#xcb;" horiz-adv-x="630" d="M78 0h499v144h-343v144h307v144h-307v132h325v144h-481v-708zM210 753q37 0 61 25t24 61t-26 59t-61 23q-17 0 -31.5 -7t-25.5 -18t-17.5 -26t-6.5 -31q0 -17 6.5 -32.5t17.5 -27.5t26 -19t33 -7zM418 753q37 0 61 25t24 61t-26 59t-61 23q-17 0 -31.5 -7t-25.5 -18 t-17.5 -26t-6.5 -31q0 -17 6.5 -32.5t17.5 -27.5t26 -19t33 -7z" />
<glyph unicode="&#xcc;" horiz-adv-x="296" d="M70 0h156v708h-156v-708zM149 903h-204l173 -144h132z" />
<glyph unicode="&#xcd;" horiz-adv-x="296" d="M70 0h156v708h-156v-708zM48 759h132l173 144h-204z" />
<glyph unicode="&#xce;" horiz-adv-x="296" d="M70 0h156v708h-156v-708zM347 759l-116 144h-163l-119 -144h135l62 78l63 -78h138z" />
<glyph unicode="&#xcf;" horiz-adv-x="296" d="M70 0h156v708h-156v-708zM43 753q37 0 61 25t24 61t-26 59t-61 23q-17 0 -31.5 -7t-25.5 -18t-17.5 -26t-6.5 -31q0 -17 6.5 -32.5t17.5 -27.5t26 -19t33 -7zM251 753q37 0 61 25t24 61t-26 59t-61 23q-17 0 -31.5 -7t-25.5 -18t-17.5 -26t-6.5 -31q0 -17 6.5 -32.5 t17.5 -27.5t26 -19t33 -7z" />
<glyph unicode="&#xd0;" horiz-adv-x="759" d="M228 564h92q49 0 93.5 -12.5t77.5 -37.5t52.5 -63.5t19.5 -90.5q0 -60 -19.5 -101.5t-53.5 -67t-80.5 -36.5t-100.5 -11h-81v174h198v102h-198v144zM72 0h255q79 0 151 23t127 67.5t87.5 110t32.5 151.5q0 97 -33.5 165t-90.5 110.5t-133.5 61.5t-161.5 19h-234v-288h-60 v-102h60v-318z" />
<glyph unicode="&#xd1;" horiz-adv-x="815" d="M72 0h156v504h2l309 -504h204v708h-156v-492h-2l-301 492h-212v-708zM291 765q5 14 15 28t27 14q15 0 30.5 -6.5t32.5 -14.5t36.5 -14.5t41.5 -6.5q31 0 53.5 11t38 29.5t24.5 43.5t14 54h-78q-7 -15 -17 -25.5t-27 -10.5q-15 0 -28.5 5t-27.5 10q-22 9 -42 15t-45 6 q-28 0 -50 -12t-37.5 -31.5t-25.5 -44.5t-14 -50h79z" />
<glyph unicode="&#xd2;" horiz-adv-x="832" d="M34 354q0 -85 28.5 -154t79.5 -117.5t121 -74.5t153 -26t153 26t121 74.5t79.5 117.5t28.5 154t-28.5 154t-79.5 117.5t-121 74.5t-153 26t-153 -26t-121 -74.5t-79.5 -117.5t-28.5 -154zM196 354q0 49 15.5 91t44.5 72.5t69.5 47.5t90.5 17t90.5 -17t69.5 -47.5 t44.5 -72.5t15.5 -91q0 -50 -15.5 -91.5t-44.5 -72t-69.5 -47.5t-90.5 -17t-90.5 17t-69.5 47.5t-44.5 72t-15.5 91.5zM417 903h-204l173 -144h132z" />
<glyph unicode="&#xd3;" horiz-adv-x="832" d="M34 354q0 -85 28.5 -154t79.5 -117.5t121 -74.5t153 -26t153 26t121 74.5t79.5 117.5t28.5 154t-28.5 154t-79.5 117.5t-121 74.5t-153 26t-153 -26t-121 -74.5t-79.5 -117.5t-28.5 -154zM196 354q0 49 15.5 91t44.5 72.5t69.5 47.5t90.5 17t90.5 -17t69.5 -47.5 t44.5 -72.5t15.5 -91q0 -50 -15.5 -91.5t-44.5 -72t-69.5 -47.5t-90.5 -17t-90.5 17t-69.5 47.5t-44.5 72t-15.5 91.5zM316 759h132l173 144h-204z" />
<glyph unicode="&#xd4;" horiz-adv-x="832" d="M34 354q0 -85 28.5 -154t79.5 -117.5t121 -74.5t153 -26t153 26t121 74.5t79.5 117.5t28.5 154t-28.5 154t-79.5 117.5t-121 74.5t-153 26t-153 -26t-121 -74.5t-79.5 -117.5t-28.5 -154zM196 354q0 49 15.5 91t44.5 72.5t69.5 47.5t90.5 17t90.5 -17t69.5 -47.5 t44.5 -72.5t15.5 -91q0 -50 -15.5 -91.5t-44.5 -72t-69.5 -47.5t-90.5 -17t-90.5 17t-69.5 47.5t-44.5 72t-15.5 91.5zM615 759l-116 144h-163l-119 -144h135l62 78l63 -78h138z" />
<glyph unicode="&#xd5;" horiz-adv-x="832" d="M34 354q0 -85 28.5 -154t79.5 -117.5t121 -74.5t153 -26t153 26t121 74.5t79.5 117.5t28.5 154t-28.5 154t-79.5 117.5t-121 74.5t-153 26t-153 -26t-121 -74.5t-79.5 -117.5t-28.5 -154zM196 354q0 49 15.5 91t44.5 72.5t69.5 47.5t90.5 17t90.5 -17t69.5 -47.5 t44.5 -72.5t15.5 -91q0 -50 -15.5 -91.5t-44.5 -72t-69.5 -47.5t-90.5 -17t-90.5 17t-69.5 47.5t-44.5 72t-15.5 91.5zM299 765q5 14 15 28t27 14q15 0 30.5 -6.5t32.5 -14.5t36.5 -14.5t41.5 -6.5q31 0 53.5 11t38 29.5t24.5 43.5t14 54h-78q-7 -15 -17 -25.5t-27 -10.5 q-15 0 -28.5 5t-27.5 10q-22 9 -42 15t-45 6q-28 0 -50 -12t-37.5 -31.5t-25.5 -44.5t-14 -50h79z" />
<glyph unicode="&#xd6;" horiz-adv-x="832" d="M34 354q0 -85 28.5 -154t79.5 -117.5t121 -74.5t153 -26t153 26t121 74.5t79.5 117.5t28.5 154t-28.5 154t-79.5 117.5t-121 74.5t-153 26t-153 -26t-121 -74.5t-79.5 -117.5t-28.5 -154zM196 354q0 49 15.5 91t44.5 72.5t69.5 47.5t90.5 17t90.5 -17t69.5 -47.5 t44.5 -72.5t15.5 -91q0 -50 -15.5 -91.5t-44.5 -72t-69.5 -47.5t-90.5 -17t-90.5 17t-69.5 47.5t-44.5 72t-15.5 91.5zM311 753q37 0 61 25t24 61t-26 59t-61 23q-17 0 -31.5 -7t-25.5 -18t-17.5 -26t-6.5 -31q0 -17 6.5 -32.5t17.5 -27.5t26 -19t33 -7zM519 753q37 0 61 25 t24 61t-26 59t-61 23q-17 0 -31.5 -7t-25.5 -18t-17.5 -26t-6.5 -31q0 -17 6.5 -32.5t17.5 -27.5t26 -19t33 -7z" />
<glyph unicode="&#xd7;" horiz-adv-x="666" d="M64 475l178 -172l-174 -181l89 -86l177 177l176 -176l92 93l-180 173l173 180l-89 86l-172 -174l-177 175z" />
<glyph unicode="&#xd8;" horiz-adv-x="832" d="M34 -3l56 -48l93 101q46 -32 105 -50t128 -18q83 0 153 26t121 74.5t79.5 117.5t28.5 154q0 81 -25.5 147t-72.5 114l90 98l-55 49l-92 -100q-96 64 -227 64q-83 0 -153 -26t-121 -74.5t-79.5 -117.5t-28.5 -154q0 -78 24 -142.5t69 -112.5zM235 217q-39 59 -39 137 q0 49 15.5 91t44.5 72.5t69.5 47.5t90.5 17q70 0 123 -34zM592 497q21 -28 32.5 -64.5t11.5 -78.5q0 -50 -15.5 -91.5t-44.5 -72t-69.5 -47.5t-90.5 -17q-38 0 -70.5 10t-58.5 28z" />
<glyph unicode="&#xd9;" horiz-adv-x="741" d="M669 708h-156v-429q0 -33 -10.5 -61t-29.5 -48.5t-45 -32t-57 -11.5t-57.5 11.5t-45.5 32t-29.5 48.5t-10.5 61v429h-156v-435q0 -63 19 -116t56.5 -92t93.5 -61t130 -22q73 0 129 22t93.5 61t56.5 92t19 116v435zM372 903h-204l173 -144h132z" />
<glyph unicode="&#xda;" horiz-adv-x="741" d="M669 708h-156v-429q0 -33 -10.5 -61t-29.5 -48.5t-45 -32t-57 -11.5t-57.5 11.5t-45.5 32t-29.5 48.5t-10.5 61v429h-156v-435q0 -63 19 -116t56.5 -92t93.5 -61t130 -22q73 0 129 22t93.5 61t56.5 92t19 116v435zM271 759h132l173 144h-204z" />
<glyph unicode="&#xdb;" horiz-adv-x="741" d="M669 708h-156v-429q0 -33 -10.5 -61t-29.5 -48.5t-45 -32t-57 -11.5t-57.5 11.5t-45.5 32t-29.5 48.5t-10.5 61v429h-156v-435q0 -63 19 -116t56.5 -92t93.5 -61t130 -22q73 0 129 22t93.5 61t56.5 92t19 116v435zM570 759l-116 144h-163l-119 -144h135l62 78l63 -78h138 z" />
<glyph unicode="&#xdc;" horiz-adv-x="741" d="M669 708h-156v-429q0 -33 -10.5 -61t-29.5 -48.5t-45 -32t-57 -11.5t-57.5 11.5t-45.5 32t-29.5 48.5t-10.5 61v429h-156v-435q0 -63 19 -116t56.5 -92t93.5 -61t130 -22q73 0 129 22t93.5 61t56.5 92t19 116v435zM266 753q37 0 61 25t24 61t-26 59t-61 23 q-17 0 -31.5 -7t-25.5 -18t-17.5 -26t-6.5 -31q0 -17 6.5 -32.5t17.5 -27.5t26 -19t33 -7zM474 753q37 0 61 25t24 61t-26 59t-61 23q-17 0 -31.5 -7t-25.5 -18t-17.5 -26t-6.5 -31q0 -17 6.5 -32.5t17.5 -27.5t26 -19t33 -7z" />
<glyph unicode="&#xdd;" horiz-adv-x="648" d="M246 0h156v302l266 406h-185l-159 -265l-150 265h-194l266 -406v-302zM224 786h132l173 144h-204z" />
<glyph unicode="&#xde;" horiz-adv-x="630" d="M72 0h156v150h114q56 0 104 10.5t83 35.5t55 67t20 104q0 63 -21.5 104.5t-58 66t-85.5 34.5t-104 10h-107v126h-156v-708zM228 450h80q22 0 46 -2.5t43.5 -11.5t32 -25.5t12.5 -43.5q0 -25 -9.5 -41.5t-25 -26t-35 -13.5t-40.5 -4h-104v168z" />
<glyph unicode="&#xdf;" horiz-adv-x="630" d="M53 0h150v538q0 45 28 71.5t74 26.5q18 0 34 -5t29 -15t20.5 -24.5t7.5 -33.5q0 -39 -26.5 -59t-64.5 -20h-12v-126h20q59 0 98 -29t39 -93q0 -30 -11 -52t-30 -36.5t-44 -21.5t-53 -7q-23 0 -49 8v-122q46 -12 93 -12q52 0 95.5 16t75 45.5t49.5 72t18 95.5 q0 78 -38.5 134t-117.5 72v2q54 22 78 62t24 98q0 48 -20 82.5t-53 57t-74.5 33t-83.5 10.5q-256 0 -256 -255v-513z" />
<glyph unicode="&#xe0;" horiz-adv-x="537" d="M358 0h138v247q0 61 -10 107.5t-35.5 78.5t-68 48.5t-108.5 16.5q-60 0 -116 -19.5t-98 -58.5l80 -82q24 27 54.5 42.5t67.5 15.5q39 0 67.5 -23.5t28.5 -63.5q-31 0 -67.5 -1t-73 -6t-70.5 -15.5t-60.5 -29.5t-42 -48t-15.5 -71q0 -37 14 -65t38 -47t55.5 -28.5 t65.5 -9.5q46 0 87.5 17t66.5 56h2v-61zM358 213v-32q0 -23 -9.5 -40t-25.5 -28t-36.5 -17t-42.5 -6q-25 0 -48 13t-23 40q0 25 16.5 39t40 21t49 8.5t42.5 1.5h37zM270 708h-204l173 -144h132z" />
<glyph unicode="&#xe1;" horiz-adv-x="537" d="M358 0h138v247q0 61 -10 107.5t-35.5 78.5t-68 48.5t-108.5 16.5q-60 0 -116 -19.5t-98 -58.5l80 -82q24 27 54.5 42.5t67.5 15.5q39 0 67.5 -23.5t28.5 -63.5q-31 0 -67.5 -1t-73 -6t-70.5 -15.5t-60.5 -29.5t-42 -48t-15.5 -71q0 -37 14 -65t38 -47t55.5 -28.5 t65.5 -9.5q46 0 87.5 17t66.5 56h2v-61zM358 213v-32q0 -23 -9.5 -40t-25.5 -28t-36.5 -17t-42.5 -6q-25 0 -48 13t-23 40q0 25 16.5 39t40 21t49 8.5t42.5 1.5h37zM169 564h132l173 144h-204z" />
<glyph unicode="&#xe2;" horiz-adv-x="537" d="M358 0h138v247q0 61 -10 107.5t-35.5 78.5t-68 48.5t-108.5 16.5q-60 0 -116 -19.5t-98 -58.5l80 -82q24 27 54.5 42.5t67.5 15.5q39 0 67.5 -23.5t28.5 -63.5q-31 0 -67.5 -1t-73 -6t-70.5 -15.5t-60.5 -29.5t-42 -48t-15.5 -71q0 -37 14 -65t38 -47t55.5 -28.5 t65.5 -9.5q46 0 87.5 17t66.5 56h2v-61zM358 213v-32q0 -23 -9.5 -40t-25.5 -28t-36.5 -17t-42.5 -6q-25 0 -48 13t-23 40q0 25 16.5 39t40 21t49 8.5t42.5 1.5h37zM468 564l-116 144h-163l-119 -144h135l62 78l63 -78h138z" />
<glyph unicode="&#xe3;" horiz-adv-x="537" d="M358 0h138v247q0 61 -10 107.5t-35.5 78.5t-68 48.5t-108.5 16.5q-60 0 -116 -19.5t-98 -58.5l80 -82q24 27 54.5 42.5t67.5 15.5q39 0 67.5 -23.5t28.5 -63.5q-31 0 -67.5 -1t-73 -6t-70.5 -15.5t-60.5 -29.5t-42 -48t-15.5 -71q0 -37 14 -65t38 -47t55.5 -28.5 t65.5 -9.5q46 0 87.5 17t66.5 56h2v-61zM358 213v-32q0 -23 -9.5 -40t-25.5 -28t-36.5 -17t-42.5 -6q-25 0 -48 13t-23 40q0 25 16.5 39t40 21t49 8.5t42.5 1.5h37zM152 570q5 14 15 28t27 14q15 0 30.5 -6.5t32.5 -14.5t36.5 -14.5t41.5 -6.5q31 0 53.5 11t38 29.5 t24.5 43.5t14 54h-78q-7 -15 -17 -25.5t-27 -10.5q-15 0 -28.5 5t-27.5 10q-22 9 -42 15t-45 6q-28 0 -50 -12t-37.5 -31.5t-25.5 -44.5t-14 -50h79z" />
<glyph unicode="&#xe4;" horiz-adv-x="537" d="M358 0h138v247q0 61 -10 107.5t-35.5 78.5t-68 48.5t-108.5 16.5q-60 0 -116 -19.5t-98 -58.5l80 -82q24 27 54.5 42.5t67.5 15.5q39 0 67.5 -23.5t28.5 -63.5q-31 0 -67.5 -1t-73 -6t-70.5 -15.5t-60.5 -29.5t-42 -48t-15.5 -71q0 -37 14 -65t38 -47t55.5 -28.5 t65.5 -9.5q46 0 87.5 17t66.5 56h2v-61zM358 213v-32q0 -23 -9.5 -40t-25.5 -28t-36.5 -17t-42.5 -6q-25 0 -48 13t-23 40q0 25 16.5 39t40 21t49 8.5t42.5 1.5h37zM164 558q37 0 61 25t24 61t-26 59t-61 23q-17 0 -31.5 -7t-25.5 -18t-17.5 -26t-6.5 -31q0 -17 6.5 -32.5 t17.5 -27.5t26 -19t33 -7zM372 558q37 0 61 25t24 61t-26 59t-61 23q-17 0 -31.5 -7t-25.5 -18t-17.5 -26t-6.5 -31q0 -17 6.5 -32.5t17.5 -27.5t26 -19t33 -7z" />
<glyph unicode="&#xe5;" horiz-adv-x="537" d="M358 0h138v247q0 61 -10 107.5t-35.5 78.5t-68 48.5t-108.5 16.5q-60 0 -116 -19.5t-98 -58.5l80 -82q24 27 54.5 42.5t67.5 15.5q39 0 67.5 -23.5t28.5 -63.5q-31 0 -67.5 -1t-73 -6t-70.5 -15.5t-60.5 -29.5t-42 -48t-15.5 -71q0 -37 14 -65t38 -47t55.5 -28.5 t65.5 -9.5q46 0 87.5 17t66.5 56h2v-61zM358 213v-32q0 -23 -9.5 -40t-25.5 -28t-36.5 -17t-42.5 -6q-25 0 -48 13t-23 40q0 25 16.5 39t40 21t49 8.5t42.5 1.5h37zM269 545q23 0 43 9t35 24t24 35t9 43t-9 43t-24 35t-35 24t-43 9t-43 -9t-35 -24t-24 -35t-9 -43t9 -43 t24 -35t35 -24t43 -9zM218 656q0 21 15 36t36 15t36 -15t15 -36t-15 -36t-36 -15t-36 15t-15 36z" />
<glyph unicode="&#xe6;" horiz-adv-x="852" d="M140 338q24 27 54.5 42.5t67.5 15.5q41 0 64 -27t23 -71h-18q-27 0 -60 -1t-66.5 -6t-65 -14.5t-56 -27.5t-39.5 -45t-15 -66q0 -37 14 -65t38 -47t55.5 -28.5t65.5 -9.5q64 0 115.5 17.5t83.5 61.5q32 -45 83 -62t111 -17q59 0 114 25t91 71l-105 77 q-19 -26 -44.5 -42.5t-62.5 -16.5q-44 0 -74 25.5t-39 68.5h348v47q0 58 -16 105t-45.5 80.5t-72 51.5t-94.5 18q-48 0 -90.5 -15t-72.5 -44q-32 31 -73.5 45t-84.5 14q-60 0 -116 -19.5t-98 -58.5zM173 139q0 21 18 33t43.5 17t52.5 6t44 1h18q0 -48 -22.5 -77t-76.5 -29 q-12 0 -26 1.5t-25 6.5t-18.5 14.5t-7.5 26.5zM475 298q1 18 8.5 34.5t21 29t32.5 20.5t44 8q41 0 67 -27t25 -65h-198z" />
<glyph unicode="&#xe7;" horiz-adv-x="482" d="M481 433q-35 36 -82.5 50.5t-90.5 14.5q-56 0 -105.5 -18t-86 -51.5t-57.5 -80.5t-21 -105q0 -49 15 -90t41.5 -72.5t63 -53t80.5 -30.5l-60 -90l32 -29q19 8 36 8q15 0 32.5 -8t17.5 -26q0 -10 -6 -16t-15.5 -9.5t-21 -5t-23.5 -1.5q-26 0 -45.5 6t-31.5 11l-25 -47 q26 -13 60.5 -21.5t64.5 -8.5q19 0 43 5t45.5 16t36 30t14.5 46q0 28 -11.5 44.5t-29.5 25t-40.5 11t-44.5 2.5l33 49q2 -1 9 -1q43 0 90.5 14.5t82.5 50.5l-99 104q-13 -15 -31 -26t-43 -11q-57 0 -88.5 34t-31.5 89t31.5 89t88.5 34q23 0 43 -10.5t31 -26.5z" />
<glyph unicode="&#xe8;" horiz-adv-x="574" d="M408 161q-19 -26 -44.5 -42.5t-62.5 -16.5q-44 0 -74 25.5t-39 68.5h348v47q0 58 -16 105t-45.5 80.5t-72 51.5t-94.5 18q-56 0 -105.5 -18t-86 -51.5t-57.5 -80.5t-21 -105t21 -105t57.5 -80.5t86 -51.5t105.5 -18q59 0 114 25t91 71zM188 298q1 18 8.5 34.5t21 29 t32.5 20.5t44 8q41 0 67 -27t25 -65h-198zM288 708h-204l173 -144h132z" />
<glyph unicode="&#xe9;" horiz-adv-x="574" d="M408 161q-19 -26 -44.5 -42.5t-62.5 -16.5q-44 0 -74 25.5t-39 68.5h348v47q0 58 -16 105t-45.5 80.5t-72 51.5t-94.5 18q-56 0 -105.5 -18t-86 -51.5t-57.5 -80.5t-21 -105t21 -105t57.5 -80.5t86 -51.5t105.5 -18q59 0 114 25t91 71zM188 298q1 18 8.5 34.5t21 29 t32.5 20.5t44 8q41 0 67 -27t25 -65h-198zM187 564h132l173 144h-204z" />
<glyph unicode="&#xea;" horiz-adv-x="574" d="M408 161q-19 -26 -44.5 -42.5t-62.5 -16.5q-44 0 -74 25.5t-39 68.5h348v47q0 58 -16 105t-45.5 80.5t-72 51.5t-94.5 18q-56 0 -105.5 -18t-86 -51.5t-57.5 -80.5t-21 -105t21 -105t57.5 -80.5t86 -51.5t105.5 -18q59 0 114 25t91 71zM188 298q1 18 8.5 34.5t21 29 t32.5 20.5t44 8q41 0 67 -27t25 -65h-198zM486 564l-116 144h-163l-119 -144h135l62 78l63 -78h138z" />
<glyph unicode="&#xeb;" horiz-adv-x="574" d="M408 161q-19 -26 -44.5 -42.5t-62.5 -16.5q-44 0 -74 25.5t-39 68.5h348v47q0 58 -16 105t-45.5 80.5t-72 51.5t-94.5 18q-56 0 -105.5 -18t-86 -51.5t-57.5 -80.5t-21 -105t21 -105t57.5 -80.5t86 -51.5t105.5 -18q59 0 114 25t91 71zM188 298q1 18 8.5 34.5t21 29 t32.5 20.5t44 8q41 0 67 -27t25 -65h-198zM182 558q37 0 61 25t24 61t-26 59t-61 23q-17 0 -31.5 -7t-25.5 -18t-17.5 -26t-6.5 -31q0 -17 6.5 -32.5t17.5 -27.5t26 -19t33 -7zM390 558q37 0 61 25t24 61t-26 59t-61 23q-17 0 -31.5 -7t-25.5 -18t-17.5 -26t-6.5 -31 q0 -17 6.5 -32.5t17.5 -27.5t26 -19t33 -7z" />
<glyph unicode="&#xec;" d="M55 0h150v486h-150v-486zM131 708h-204l173 -144h132z" />
<glyph unicode="&#xed;" d="M55 0h150v486h-150v-486zM30 564h132l173 144h-204z" />
<glyph unicode="&#xee;" d="M55 0h150v486h-150v-486zM329 564l-116 144h-163l-119 -144h135l62 78l63 -78h138z" />
<glyph unicode="&#xef;" d="M55 0h150v486h-150v-486zM25 558q37 0 61 25t24 61t-26 59t-61 23q-17 0 -31.5 -7t-25.5 -18t-17.5 -26t-6.5 -31q0 -17 6.5 -32.5t17.5 -27.5t26 -19t33 -7zM233 558q37 0 61 25t24 61t-26 59t-61 23q-17 0 -31.5 -7t-25.5 -18t-17.5 -26t-6.5 -31q0 -17 6.5 -32.5 t17.5 -27.5t26 -19t33 -7z" />
<glyph unicode="&#xf0;" horiz-adv-x="610" d="M449 777l-114 -48q-18 19 -37.5 37t-42.5 35l-122 -70q9 -6 19 -14t19.5 -16.5t17.5 -16t13 -12.5l-108 -46l72 -68l106 45q12 -11 27.5 -27.5t30.5 -34.5t29 -35.5t24 -31.5l-2 -2q-20 17 -46 21.5t-52 4.5q-46 0 -90.5 -18t-79.5 -51.5t-56.5 -80.5t-21.5 -105t21 -105 t57.5 -80.5t86 -51.5t105.5 -18q66 -1 116 20t84.5 59.5t52 93.5t17.5 123q0 71 -18 129t-44.5 104.5t-56 81.5t-53.5 60l123 51zM185 243q0 55 31.5 89t88.5 34t88.5 -34t31.5 -89t-31.5 -89t-88.5 -34t-88.5 34t-31.5 89z" />
<glyph unicode="&#xf1;" horiz-adv-x="574" d="M53 0h150v242q0 24 3 46t12.5 39.5t27.5 28t47 10.5t44.5 -12t23 -31t9 -41.5t1.5 -43.5v-238h150v268q0 49 -7 91t-26.5 73t-54.5 48.5t-92 17.5q-27 0 -50 -7t-41 -18t-31 -25t-20 -28h-2v66h-144v-486zM170 570q5 14 15 28t27 14q15 0 30.5 -6.5t32.5 -14.5 t36.5 -14.5t41.5 -6.5q31 0 53.5 11t38 29.5t24.5 43.5t14 54h-78q-7 -15 -17 -25.5t-27 -10.5q-15 0 -28.5 5t-27.5 10q-22 9 -42 15t-45 6q-28 0 -50 -12t-37.5 -31.5t-25.5 -44.5t-14 -50h79z" />
<glyph unicode="&#xf2;" horiz-adv-x="610" d="M35 243q0 -58 21 -105t57.5 -80.5t86 -51.5t105.5 -18t105.5 18t86 51.5t57.5 80.5t21 105t-21 105t-57.5 80.5t-86 51.5t-105.5 18t-105.5 -18t-86 -51.5t-57.5 -80.5t-21 -105zM185 243q0 55 31.5 89t88.5 34t88.5 -34t31.5 -89t-31.5 -89t-88.5 -34t-88.5 34t-31.5 89 zM306 708h-204l173 -144h132z" />
<glyph unicode="&#xf3;" horiz-adv-x="610" d="M35 243q0 -58 21 -105t57.5 -80.5t86 -51.5t105.5 -18t105.5 18t86 51.5t57.5 80.5t21 105t-21 105t-57.5 80.5t-86 51.5t-105.5 18t-105.5 -18t-86 -51.5t-57.5 -80.5t-21 -105zM185 243q0 55 31.5 89t88.5 34t88.5 -34t31.5 -89t-31.5 -89t-88.5 -34t-88.5 34t-31.5 89 zM205 564h132l173 144h-204z" />
<glyph unicode="&#xf4;" horiz-adv-x="610" d="M35 243q0 -58 21 -105t57.5 -80.5t86 -51.5t105.5 -18t105.5 18t86 51.5t57.5 80.5t21 105t-21 105t-57.5 80.5t-86 51.5t-105.5 18t-105.5 -18t-86 -51.5t-57.5 -80.5t-21 -105zM185 243q0 55 31.5 89t88.5 34t88.5 -34t31.5 -89t-31.5 -89t-88.5 -34t-88.5 34t-31.5 89 zM504 564l-116 144h-163l-119 -144h135l62 78l63 -78h138z" />
<glyph unicode="&#xf5;" horiz-adv-x="610" d="M35 243q0 -58 21 -105t57.5 -80.5t86 -51.5t105.5 -18t105.5 18t86 51.5t57.5 80.5t21 105t-21 105t-57.5 80.5t-86 51.5t-105.5 18t-105.5 -18t-86 -51.5t-57.5 -80.5t-21 -105zM185 243q0 55 31.5 89t88.5 34t88.5 -34t31.5 -89t-31.5 -89t-88.5 -34t-88.5 34t-31.5 89 zM188 570q5 14 15 28t27 14q15 0 30.5 -6.5t32.5 -14.5t36.5 -14.5t41.5 -6.5q31 0 53.5 11t38 29.5t24.5 43.5t14 54h-78q-7 -15 -17 -25.5t-27 -10.5q-15 0 -28.5 5t-27.5 10q-22 9 -42 15t-45 6q-28 0 -50 -12t-37.5 -31.5t-25.5 -44.5t-14 -50h79z" />
<glyph unicode="&#xf6;" horiz-adv-x="610" d="M35 243q0 -58 21 -105t57.5 -80.5t86 -51.5t105.5 -18t105.5 18t86 51.5t57.5 80.5t21 105t-21 105t-57.5 80.5t-86 51.5t-105.5 18t-105.5 -18t-86 -51.5t-57.5 -80.5t-21 -105zM185 243q0 55 31.5 89t88.5 34t88.5 -34t31.5 -89t-31.5 -89t-88.5 -34t-88.5 34t-31.5 89 zM200 558q37 0 61 25t24 61t-26 59t-61 23q-17 0 -31.5 -7t-25.5 -18t-17.5 -26t-6.5 -31q0 -17 6.5 -32.5t17.5 -27.5t26 -19t33 -7zM408 558q37 0 61 25t24 61t-26 59t-61 23q-17 0 -31.5 -7t-25.5 -18t-17.5 -26t-6.5 -31q0 -17 6.5 -32.5t17.5 -27.5t26 -19t33 -7z" />
<glyph unicode="&#xf7;" horiz-adv-x="666" d="M59 240h548v126h-548v-126zM247 114q0 -18 7 -33.5t18.5 -27t27 -18.5t33.5 -7t33.5 7t27 18.5t18.5 27t7 33.5t-7 33.5t-18.5 27t-27 18.5t-33.5 7t-33.5 -7t-27 -18.5t-18.5 -27t-7 -33.5zM247 492q0 -18 7 -33.5t18.5 -27t27 -18.5t33.5 -7t33.5 7t27 18.5t18.5 27 t7 33.5t-7 33.5t-18.5 27t-27 18.5t-33.5 7t-33.5 -7t-27 -18.5t-18.5 -27t-7 -33.5z" />
<glyph unicode="&#xf8;" horiz-adv-x="610" d="M26 6l47 -45l73 73q69 -46 159 -46q56 0 105.5 18t86 51.5t57.5 80.5t21 105q0 48 -15 89t-42 73l66 66l-47 45l-67 -67q-34 23 -75.5 36t-89.5 13q-56 0 -105.5 -18t-86 -51.5t-57.5 -80.5t-21 -105q0 -51 16 -93t45 -74zM200 180q-15 27 -15 63q0 55 31.5 89t88.5 34 q38 0 65 -16zM413 300q12 -26 12 -57q0 -55 -31.5 -89t-88.5 -34q-33 0 -59 14z" />
<glyph unicode="&#xf9;" horiz-adv-x="574" d="M521 486h-150v-242q0 -24 -3 -46t-12.5 -39.5t-27.5 -28t-47 -10.5t-44.5 12t-23 31t-9 41.5t-1.5 43.5v238h-150v-268q0 -49 6.5 -91t26 -73t55 -48.5t92.5 -17.5q27 0 50 7t41 18t30.5 25t20.5 28h2v-66h144v486zM288 708h-204l173 -144h132z" />
<glyph unicode="&#xfa;" horiz-adv-x="574" d="M521 486h-150v-242q0 -24 -3 -46t-12.5 -39.5t-27.5 -28t-47 -10.5t-44.5 12t-23 31t-9 41.5t-1.5 43.5v238h-150v-268q0 -49 6.5 -91t26 -73t55 -48.5t92.5 -17.5q27 0 50 7t41 18t30.5 25t20.5 28h2v-66h144v486zM187 564h132l173 144h-204z" />
<glyph unicode="&#xfb;" horiz-adv-x="574" d="M521 486h-150v-242q0 -24 -3 -46t-12.5 -39.5t-27.5 -28t-47 -10.5t-44.5 12t-23 31t-9 41.5t-1.5 43.5v238h-150v-268q0 -49 6.5 -91t26 -73t55 -48.5t92.5 -17.5q27 0 50 7t41 18t30.5 25t20.5 28h2v-66h144v486zM486 564l-116 144h-163l-119 -144h135l62 78l63 -78 h138z" />
<glyph unicode="&#xfc;" horiz-adv-x="574" d="M521 486h-150v-242q0 -24 -3 -46t-12.5 -39.5t-27.5 -28t-47 -10.5t-44.5 12t-23 31t-9 41.5t-1.5 43.5v238h-150v-268q0 -49 6.5 -91t26 -73t55 -48.5t92.5 -17.5q27 0 50 7t41 18t30.5 25t20.5 28h2v-66h144v486zM182 558q37 0 61 25t24 61t-26 59t-61 23 q-17 0 -31.5 -7t-25.5 -18t-17.5 -26t-6.5 -31q0 -17 6.5 -32.5t17.5 -27.5t26 -19t33 -7zM390 558q37 0 61 25t24 61t-26 59t-61 23q-17 0 -31.5 -7t-25.5 -18t-17.5 -26t-6.5 -31q0 -17 6.5 -32.5t17.5 -27.5t26 -19t33 -7z" />
<glyph unicode="&#xfd;" horiz-adv-x="556" d="M553 486h-154l-107 -321h-2l-125 321h-162l213 -490l-11 -28q-8 -20 -15 -35t-17.5 -25.5t-26.5 -16t-41 -5.5q-36 0 -70 15l-20 -123q54 -18 112 -18q54 0 87 10.5t54.5 31t35.5 50.5t29 69zM178 564h132l173 144h-204z" />
<glyph unicode="&#xfe;" horiz-adv-x="630" d="M67 -228h150v280h2q26 -35 66.5 -49.5t87.5 -14.5q52 0 93 21.5t69.5 57.5t44 82.5t15.5 97.5q0 55 -17 101t-48.5 79.5t-75.5 52t-98 18.5q-21 0 -41.5 -4.5t-39 -13t-33 -20t-23.5 -26.5h-2v322h-150v-984zM205 243q0 55 31.5 89t88.5 34t88.5 -34t31.5 -89t-31.5 -89 t-88.5 -34t-88.5 34t-31.5 89z" />
<glyph unicode="&#xff;" horiz-adv-x="556" d="M553 486h-154l-107 -321h-2l-125 321h-162l213 -490l-11 -28q-8 -20 -15 -35t-17.5 -25.5t-26.5 -16t-41 -5.5q-36 0 -70 15l-20 -123q54 -18 112 -18q54 0 87 10.5t54.5 31t35.5 50.5t29 69zM173 558q37 0 61 25t24 61t-26 59t-61 23q-17 0 -31.5 -7t-25.5 -18 t-17.5 -26t-6.5 -31q0 -17 6.5 -32.5t17.5 -27.5t26 -19t33 -7zM381 558q37 0 61 25t24 61t-26 59t-61 23q-17 0 -31.5 -7t-25.5 -18t-17.5 -26t-6.5 -31q0 -17 6.5 -32.5t17.5 -27.5t26 -19t33 -7z" />
<glyph unicode="&#x131;" d="M55 0h150v486h-150v-486z" />
<glyph unicode="&#x141;" horiz-adv-x="537" d="M78 0h445v144h-289v154l210 184v130l-210 -185v281h-156v-416l-60 -52v-132l60 52v-160z" />
<glyph unicode="&#x142;" d="M55 0h150v398l60 61v129l-60 -61v229h-150v-379l-60 -61v-129l60 61v-248z" />
<glyph unicode="&#x152;" horiz-adv-x="1018" d="M665 564h288v144h-527q-82 0 -153.5 -23t-124.5 -68t-83.5 -111t-30.5 -152q0 -93 36 -160t93 -110t128.5 -63.5t142.5 -20.5h531v144h-300v144h264v144h-264v132zM509 144h-51q-58 0 -106 13t-82.5 39.5t-54 65.5t-19.5 92q0 52 19.5 91.5t54 66t82.5 39.5t106 13h51 v-420z" />
<glyph unicode="&#x153;" horiz-adv-x="944" d="M778 161q-19 -26 -44.5 -42.5t-62.5 -16.5q-44 0 -74 25.5t-39 68.5h348v47q0 58 -16 105t-45.5 80.5t-72 51.5t-94.5 18q-66 0 -112 -19.5t-78 -53.5q-36 37 -82 55t-100 18q-57 0 -106 -18t-86 -51.5t-58 -80.5t-21 -105t21 -105t58 -80.5t86 -51.5t106 -18 q51 0 97.5 15t84.5 54q35 -38 81 -53.5t109 -15.5q59 0 114 25t91 71zM306 366q57 0 88.5 -34t31.5 -89t-31.5 -89t-88.5 -34t-89 34t-32 89t32 89t89 34zM558 298q1 18 8.5 34.5t21 29t32.5 20.5t44 8q41 0 67 -27t25 -65h-198z" />
<glyph unicode="&#x160;" horiz-adv-x="574" d="M529 652q-45 40 -101 57t-116 17q-52 0 -101 -14.5t-86.5 -43.5t-60 -72t-22.5 -100q0 -59 24.5 -95t61.5 -58t80 -35t80 -26t61.5 -31.5t24.5 -50.5q0 -19 -9.5 -33t-25 -23t-35 -13.5t-38.5 -4.5q-39 0 -75.5 17.5t-60.5 49.5l-111 -122q51 -47 110 -68t128 -21 q55 0 104.5 14t87 43t59.5 73t22 103q0 62 -24 99t-60.5 59t-78.5 34t-78.5 24t-60.5 29t-24 49q0 20 10 34t26 22.5t34 12.5t35 4q29 0 61.5 -11.5t51.5 -35.5zM84 930l116 -144h163l119 144h-135l-62 -78l-63 78h-138z" />
<glyph unicode="&#x161;" horiz-adv-x="463" d="M420 434q-34 36 -83 50t-97 14q-38 0 -75 -9.5t-65.5 -29.5t-46 -51t-17.5 -74q0 -46 18.5 -73.5t47 -42.5t61 -22.5t61 -14t47 -16t18.5 -28.5q0 -20 -21 -27.5t-47 -7.5q-34 0 -59.5 13.5t-46.5 39.5l-91 -101q36 -37 88 -51.5t103 -14.5q39 0 79 7.5t72 26t52.5 49 t20.5 77.5q0 46 -18.5 73.5t-47 43.5t-61 23.5t-61 14t-47 15t-18.5 26.5q0 22 18 31t37 9q54 0 87 -41zM29 708l116 -144h163l119 144h-135l-62 -78l-63 78h-138z" />
<glyph unicode="&#x178;" horiz-adv-x="648" d="M246 0h156v302l266 406h-185l-159 -265l-150 265h-194l266 -406v-302zM219 780q37 0 61 25t24 61t-26 59t-61 23q-17 0 -31.5 -7t-25.5 -18t-17.5 -26t-6.5 -31q0 -17 6.5 -32.5t17.5 -27.5t26 -19t33 -7zM427 780q37 0 61 25t24 61t-26 59t-61 23q-17 0 -31.5 -7 t-25.5 -18t-17.5 -26t-6.5 -31q0 -17 6.5 -32.5t17.5 -27.5t26 -19t33 -7z" />
<glyph unicode="&#x17d;" horiz-adv-x="630" d="M35 0h560v144h-364l352 426v138h-535v-138h346l-359 -426v-144zM112 930l116 -144h163l119 144h-135l-62 -78l-63 78h-138z" />
<glyph unicode="&#x17e;" horiz-adv-x="500" d="M34 0h432v120h-270l264 222v144h-420v-120h246l-252 -216v-150zM47 708l116 -144h163l119 144h-135l-62 -78l-63 78h-138z" />
<glyph unicode="&#x192;" horiz-adv-x="592" d="M496 434h-126l15 71q9 44 26 63.5t53 19.5q27 0 52 -11l53 113q-32 15 -63.5 22.5t-66.5 7.5q-46 0 -78.5 -9.5t-55.5 -32.5t-38 -60.5t-26 -92.5l-18 -91h-134v-102h114l-50 -244q-11 -52 -27 -73.5t-48 -21.5q-12 0 -23.5 2.5t-22.5 8.5l-52 -119q26 -11 54.5 -17.5 t56.5 -6.5q47 0 81 12.5t58 36t39 56.5t23 74l58 292h146v102z" />
<glyph unicode="&#x2c6;" d="M329 564l-116 144h-163l-119 -144h135l62 78l63 -78h138z" />
<glyph unicode="&#x2c7;" d="M-73 708l116 -144h163l119 144h-135l-62 -78l-63 78h-138z" />
<glyph unicode="&#x2d8;" d="M-54 708q2 -39 18 -66.5t41 -45t57 -25t68 -7.5t67.5 8t56 25.5t40.5 45t20 65.5h-79q-11 -33 -38.5 -40.5t-66.5 -7.5q-17 0 -34 2t-31.5 7.5t-25 14.5t-13.5 24h-80z" />
<glyph unicode="&#x2d9;" d="M129 558q37 0 61 25t24 61t-26 59t-61 23q-17 0 -31.5 -7t-25.5 -18t-17.5 -26t-6.5 -31q0 -17 6.5 -32.5t17.5 -27.5t26 -19t33 -7z" />
<glyph unicode="&#x2da;" d="M130 545q23 0 43 9t35 24t24 35t9 43t-9 43t-24 35t-35 24t-43 9t-43 -9t-35 -24t-24 -35t-9 -43t9 -43t24 -35t35 -24t43 -9zM79 656q0 21 15 36t36 15t36 -15t15 -36t-15 -36t-36 -15t-36 15t-15 36z" />
<glyph unicode="&#x2db;" d="M177 -145q-11 -9 -25.5 -16t-28.5 -7q-18 0 -30 14.5t-12 31.5t8.5 36t21 37.5t27 34t26.5 26.5h-68q-17 -13 -35 -31t-34 -39.5t-26 -44t-10 -44.5t8.5 -39.5t23 -29.5t33.5 -18t40 -6q32 0 58 11.5t51 30.5z" />
<glyph unicode="&#x2dc;" d="M13 570q5 14 15 28t27 14q15 0 30.5 -6.5t32.5 -14.5t36.5 -14.5t41.5 -6.5q31 0 53.5 11t38 29.5t24.5 43.5t14 54h-78q-7 -15 -17 -25.5t-27 -10.5q-15 0 -28.5 5t-27.5 10q-22 9 -42 15t-45 6q-28 0 -50 -12t-37.5 -31.5t-25.5 -44.5t-14 -50h79z" />
<glyph unicode="&#x2dd;" d="M-102 564h132l173 144h-204zM162 564h132l173 144h-204z" />
<glyph unicode="&#x2013;" horiz-adv-x="500" d="M0 189h500v120h-500v-120z" />
<glyph unicode="&#x2014;" horiz-adv-x="1000" d="M0 189h1000v120h-1000v-120z" />
<glyph unicode="&#x2018;" horiz-adv-x="296" d="M39 426h144l74 282h-128z" />
<glyph unicode="&#x2019;" horiz-adv-x="296" d="M257 708h-144l-74 -282h128z" />
<glyph unicode="&#x201a;" horiz-adv-x="296" d="M257 156h-144l-74 -282h128z" />
<glyph unicode="&#x201c;" horiz-adv-x="520" d="M44 426h144l74 282h-128zM258 426h144l74 282h-128z" />
<glyph unicode="&#x201d;" horiz-adv-x="520" d="M476 708h-144l-74 -282h128zM262 708h-144l-74 -282h128z" />
<glyph unicode="&#x201e;" horiz-adv-x="520" d="M476 156h-144l-74 -282h128zM262 156h-144l-74 -282h128z" />
<glyph unicode="&#x2020;" horiz-adv-x="592" d="M224 -133h138v505h196v126h-196v210h-138v-210h-190v-126h190v-505z" />
<glyph unicode="&#x2021;" horiz-adv-x="592" d="M227 -133h138v180h193v120h-193v241h193v120h-193v180h-138v-180h-193v-120h193v-241h-193v-120h193v-180z" />
<glyph unicode="&#x2022;" horiz-adv-x="500" d="M73 354q0 -37 14 -69t38 -56t56 -38t69 -14t69 14t56 38t38 56t14 69t-14 69t-38 56t-56 38t-69 14t-69 -14t-56 -38t-38 -56t-14 -69z" />
<glyph unicode="&#x2026;" horiz-adv-x="1000" d="M75 86q0 -19 7 -36t19.5 -29.5t29.5 -19.5t36 -7t36 7t29.5 19.5t19.5 29.5t7 36t-7 36t-19.5 29.5t-29.5 19.5t-36 7t-36 -7t-29.5 -19.5t-19.5 -29.5t-7 -36zM408 86q0 -19 7 -36t19.5 -29.5t29.5 -19.5t36 -7t36 7t29.5 19.5t19.5 29.5t7 36t-7 36t-19.5 29.5 t-29.5 19.5t-36 7t-36 -7t-29.5 -19.5t-19.5 -29.5t-7 -36zM741 86q0 -19 7 -36t19.5 -29.5t29.5 -19.5t36 -7t36 7t29.5 19.5t19.5 29.5t7 36t-7 36t-19.5 29.5t-29.5 19.5t-36 7t-36 -7t-29.5 -19.5t-19.5 -29.5t-7 -36z" />
<glyph unicode="&#x2030;" horiz-adv-x="1167" d="M395 165q0 -36 13.5 -68.5t37.5 -56.5t56 -38t69 -14q36 0 68 14t56 38t38 56.5t14 68.5t-14 68t-38 56t-56 38t-68 14q-37 0 -69 -14t-56 -38t-37.5 -56t-13.5 -68zM782 165q0 -36 14 -68.5t38 -56.5t56 -38t68 -14t68.5 14t56.5 38t38 56.5t14 68.5t-14 68t-38 56 t-56.5 38t-68.5 14t-68 -14t-56 -38t-38 -56t-14 -68zM32 544q0 -36 13.5 -68.5t37.5 -56.5t56 -38t69 -14q36 0 68.5 14t56.5 38t38 56.5t14 68.5t-14 68t-38 56t-56.5 38t-68.5 14q-37 0 -69 -14t-56 -38t-37.5 -56t-13.5 -68zM128 544q0 33 23.5 56.5t56.5 23.5t57 -23.5 t24 -56.5t-24 -57t-57 -24t-56.5 24t-23.5 57zM491 165q0 33 23.5 56.5t56.5 23.5t56.5 -23.5t23.5 -56.5t-23.5 -57t-56.5 -24t-56.5 24t-23.5 57zM878 165q0 33 23.5 56.5t56.5 23.5t57 -23.5t24 -56.5t-24 -57t-57 -24t-56.5 24t-23.5 57zM147 11l76 -43l413 725l-84 47z " />
<glyph unicode="&#x2039;" horiz-adv-x="296" d="M268 422l-91 61l-159 -234l159 -234l91 61l-116 173z" />
<glyph unicode="&#x203a;" horiz-adv-x="296" d="M28 76l91 -61l159 234l-159 234l-91 -61l116 -173z" />
<glyph unicode="&#x2044;" horiz-adv-x="167" d="M-161 11l76 -43l413 725l-84 47z" />
<glyph unicode="&#x2122;" horiz-adv-x="1000" d="M159 296h108v316h119v96h-346v-96h119v-316zM474 296h108v268h2l98 -268h70l98 268h2v-268h108v412h-145l-98 -268l-98 268h-145v-412z" />
<glyph unicode="&#x2212;" horiz-adv-x="666" d="M59 240h548v126h-548v-126z" />
<glyph unicode="&#x25fc;" horiz-adv-x="485" d="M0 485h485v-485h-485v485z" />
<glyph unicode="&#xfb01;" horiz-adv-x="630" d="M425 0h150v486h-150v-486zM413 639q0 -36 25.5 -61.5t61.5 -25.5t61.5 25.5t25.5 61.5t-25.5 61.5t-61.5 25.5t-61.5 -25.5t-25.5 -61.5zM105 0h150v366h111v120h-111v77q0 48 18 63.5t54 15.5q14 0 25 -2.5t24 -7.5l7 127q-21 5 -43 7t-45 2q-61 0 -98.5 -15.5 t-57.5 -42.5t-27 -62.5t-7 -75.5v-86h-99v-120h99v-366z" />
<glyph unicode="&#xfb02;" horiz-adv-x="630" d="M425 0h150v756h-150v-756zM105 0h150v366h111v120h-111v77q0 48 18 63.5t54 15.5q14 0 25 -2.5t24 -7.5l7 127q-21 5 -43 7t-45 2q-61 0 -98.5 -15.5t-57.5 -42.5t-27 -62.5t-7 -75.5v-86h-99v-120h99v-366z" />
</font>
</defs>
</svg>
